<?xml version="1.0" standalone="no"?>
<!DOCTYPE svg PUBLIC "-//W3C//DTD SVG 1.1//EN" "http://www.w3.org/Graphics/SVG/1.1/DTD/svg11.dtd" >
<svg>
<metadata>
Created by FontForge 20090622 at Wed Nov 20 11:39:52 2019
 By deploy user
Copyright NAL 2012
</metadata>
<defs>
<font id="Equalize" horiz-adv-x="1164" >
  <font-face 
    font-family="Equalize"
    font-weight="400"
    font-stretch="normal"
    units-per-em="1024"
    panose-1="0 0 4 0 0 0 0 0 0 0"
    ascent="1024"
    descent="0"
    x-height="1024"
    cap-height="1024"
    bbox="-268 -256 1702 1152"
    underline-thickness="51"
    underline-position="127"
    unicode-range="U+0020-U+201D"
  />
<missing-glyph horiz-adv-x="947" 
d="M512 145v163h-163v-163h163zM674 335v163h-325v-163h325zM512 525v163h-163v-163h163zM674 715v162h-162q-68 0 -115 -47q-48 -48 -48 -115h325zM0 0v1024h1024v-1024h-1024z" />
    <glyph glyph-name=".notdef" horiz-adv-x="947" 
d="M512 145v163h-163v-163h163zM674 335v163h-325v-163h325zM512 525v163h-163v-163h163zM674 715v162h-162q-68 0 -115 -47q-48 -48 -48 -115h325zM0 0v1024h1024v-1024h-1024z" />
    <glyph glyph-name="glyph1" horiz-adv-x="0" 
 />
    <glyph glyph-name="glyph2" horiz-adv-x="627" 
 />
    <glyph glyph-name="space" unicode=" " horiz-adv-x="627" 
 />
    <glyph glyph-name="exclam" unicode="!" horiz-adv-x="448" 
d="M0 0l89 256h358l-89 -256h-358zM134 384l224 640h358l-224 -640h-358z" />
    <glyph glyph-name="quotedbl" unicode="&#x22;" horiz-adv-x="896" 
d="M179 512l179 512h358l-179 -512h-358zM627 512l179 512h358l-179 -512h-358z" />
    <glyph glyph-name="numbersign" unicode="#" 
d="M761 384l90 256h-180l-89 -256h179zM89 0l45 128h-90l90 256h89l90 256h-90l90 256h90l44 128h359l-45 -128h179l45 128h358l-44 -128h89l-89 -256h-90l-90 -256h90l-90 -256h-89l-45 -128h-358l44 128h-179l-45 -128h-358z" />
    <glyph glyph-name="dollar" unicode="$" 
d="M313 -128l45 128h-358l89 256h717l45 128h-583l-89 128l89 256l359 256h89l45 128h358l-44 -128h358l-90 -256h-716l-45 -128h582l90 -128l-90 -256l-358 -256h-90l-45 -128h-358z" />
    <glyph glyph-name="percent" unicode="%" 
d="M716 0l90 256h358l-89 -256h-359zM268 768l90 256h358l-89 -256h-359zM-268 0l1432 1024h538l-1434 -1024h-536z" />
    <glyph glyph-name="ampersand" unicode="&#x26;" 
d="M716 256l45 128h-224l-90 -128h269zM268 0l-179 256l179 256v256l359 256h268l-89 -256h-179v-128h224l89 256h359l-90 -256h90l-90 -256h-90l-44 -128h89l-89 -256h-807z" />
    <glyph glyph-name="quotesingle" unicode="'" horiz-adv-x="448" 
d="M179 512l179 512h358l-179 -512h-358z" />
    <glyph glyph-name="parenleft" unicode="(" horiz-adv-x="537" 
d="M0 0l358 1024h448l-90 -256h-89l-180 -512h90l-90 -256h-447z" />
    <glyph glyph-name="parenright" unicode=")" horiz-adv-x="537" 
d="M0 0l89 256h90l179 512h-90l90 256h448l-359 -1024h-447z" />
    <glyph glyph-name="asterisk" unicode="*" horiz-adv-x="627" 
d="M269 512l45 128h-90l90 256h90l44 128h359l-45 -128h90l-90 -256h-90l-44 -128h-359z" />
    <glyph glyph-name="plus" unicode="+" horiz-adv-x="806" 
d="M223 128l90 256h-179l89 256h180l89 256h359l-90 -256h179l-89 -256h-180l-89 -256h-359z" />
    <glyph glyph-name="comma" unicode="," horiz-adv-x="447" 
d="M-89 -256l178 512h358l-179 -512h-357z" />
    <glyph glyph-name="hyphen" unicode="-" horiz-adv-x="806" 
d="M134 384l89 256h717l-89 -256h-717z" />
    <glyph glyph-name="period" unicode="." horiz-adv-x="447" 
d="M0 0l89 256h358l-89 -256h-358z" />
    <glyph glyph-name="slash" unicode="/" 
d="M-268 0l1432 1024h538l-1434 -1024h-536z" />
    <glyph glyph-name="zero" unicode="0" 
d="M806 256l179 512h-358l-180 -512h359zM268 0l-179 256l179 512l359 256h537l179 -256l-179 -512l-358 -256h-538z" />
    <glyph glyph-name="one" unicode="1" horiz-adv-x="537" 
d="M89 0l269 768h-90l90 256h448l-359 -1024h-358z" />
    <glyph glyph-name="two" unicode="2" 
d="M0 0l223 640h717l45 128h-717l90 256h806l179 -256l-134 -384h-717l-45 -128h717l-89 -256h-1075z" />
    <glyph glyph-name="three" unicode="3" 
d="M0 0l89 256h717v128h-672l89 256h672l90 128h-717l90 256h806l179 -256l-179 -256v-256l-358 -256h-806z" />
    <glyph glyph-name="four" unicode="4" horiz-adv-x="1254" 
d="M895 512l60 170l-239 -170h179zM716 0l90 256h-717l90 256l716 512h538l-179 -512h89l-89 -256h-90l-89 -256h-359z" />
    <glyph glyph-name="five" unicode="5" 
d="M0 0l89 256h717l45 128h-583l-89 128l179 512h1075l-90 -256h-716l-45 -128h582l90 -128l-90 -256l-358 -256h-806z" />
    <glyph glyph-name="six" unicode="6" 
d="M806 256l45 128h-359l-45 -128h359zM268 0l-179 256l179 512l359 256h806l-90 -256h-716l-45 -128h582l90 -128l-90 -256l-358 -256h-538z" />
    <glyph glyph-name="seven" unicode="7" 
d="M-268 0l1074 768h-538l90 256h1075l-90 -256l-1075 -768h-536z" />
    <glyph glyph-name="eight" unicode="8" 
d="M806 256v128h-269l-90 -128h359zM895 640l90 128h-358v-128h268zM268 0l-179 256l179 256v256l359 256h537l179 -256l-179 -256v-256l-358 -256h-538z" />
    <glyph glyph-name="nine" unicode="9" 
d="M940 640l45 128h-358l-45 -128h358zM0 0l89 256h717l45 128h-583l-89 128l89 256l359 256h537l179 -256l-179 -512l-358 -256h-806z" />
    <glyph glyph-name="colon" unicode=":" horiz-adv-x="447" 
d="M0 0l89 256h358l-89 -256h-358zM179 512l89 256h359l-90 -256h-358z" />
    <glyph glyph-name="semicolon" unicode=";" horiz-adv-x="447" 
d="M-89 -256l178 512h358l-179 -512h-357zM179 512l89 256h359l-90 -256h-358z" />
    <glyph glyph-name="less" unicode="&#x3c;" horiz-adv-x="537" 
d="M0 0l358 1024h448l-90 -256h-89l-180 -512h90l-90 -256h-447z" />
    <glyph glyph-name="equal" unicode="=" horiz-adv-x="806" 
d="M44 128l90 256h717l-90 -256h-717zM179 512l89 256h717l-90 -256h-716z" />
    <glyph glyph-name="greater" unicode="&#x3e;" horiz-adv-x="537" 
d="M0 0l89 256h90l179 512h-90l90 256h448l-359 -1024h-447z" />
    <glyph glyph-name="question" unicode="?" 
d="M0 0l89 256h358l-89 -256h-358zM134 384l89 256h717l45 128h-717l90 256h806l179 -256l-134 -384h-1075z" />
    <glyph glyph-name="at" unicode="@" 
d="M268 0l-179 256l179 512l359 256h537l179 -256l-134 -384h-582l89 256h224l45 128h-358l-180 -512h717l-89 -256h-807z" />
    <glyph glyph-name="A" unicode="A" 
d="M895 512l90 256h-358l-90 -256h358zM0 0l268 768l359 256h537l179 -256l-268 -768h-359l90 256h-359l-89 -256h-358z" />
    <glyph glyph-name="B" unicode="B" 
d="M806 256v128h-314l-45 -128h359zM895 640l90 128h-358l-45 -128h313zM0 0l358 1024h806l179 -256l-179 -256v-256l-358 -256h-806z" />
    <glyph glyph-name="C" unicode="C" 
d="M268 0l-179 256l179 512l359 256h537l179 -256l-44 -128h-359l45 128h-358l-180 -512h359l45 128h358l-45 -128l-358 -256h-538z" />
    <glyph glyph-name="D" unicode="D" 
d="M806 256l179 512h-358l-180 -512h359zM0 0l358 1024h806l179 -256l-179 -512l-358 -256h-806z" />
    <glyph glyph-name="E" unicode="E" 
d="M0 0l358 1024h1075l-90 -256h-716l-45 -128h717l-90 -256h-717l-45 -128h717l-89 -256h-1075z" />
    <glyph glyph-name="F" unicode="F" 
d="M0 0l358 1024h1075l-90 -256h-716l-45 -128h717l-90 -256h-717l-134 -384h-358z" />
    <glyph glyph-name="G" unicode="G" 
d="M268 0l-179 256l179 512l359 256h806l-90 -256h-716l-180 -512h359l45 128h-180l90 256h538l-135 -384l-358 -256h-538z" />
    <glyph glyph-name="H" unicode="H" 
d="M0 0l358 1024h358l-134 -384h358l135 384h358l-358 -1024h-359l135 384h-359l-134 -384h-358z" />
    <glyph glyph-name="I" unicode="I" horiz-adv-x="448" 
d="M0 0l358 1024h358l-358 -1024h-358z" />
    <glyph glyph-name="J" unicode="J" 
d="M268 0l-179 256l90 256h358l-90 -256h359l179 512h-269l90 256h627l-269 -768l-358 -256h-538z" />
    <glyph glyph-name="K" unicode="K" 
d="M0 0l358 1024h358l-134 -384h224l269 384h358l-418 -598l149 -426h-358l-135 384h-179l-134 -384h-358z" />
    <glyph glyph-name="L" unicode="L" 
d="M0 0l358 1024h358l-269 -768h717l-89 -256h-1075z" />
    <glyph glyph-name="M" unicode="M" horiz-adv-x="1344" 
d="M0 0l358 1024h179l269 -384l537 384h269l-358 -1024h-359l180 512l-359 -256l-179 256l-179 -512h-358z" />
    <glyph glyph-name="N" unicode="N" 
d="M0 0l358 1024h179l358 -512l180 512h358l-358 -1024h-180l-358 512l-179 -512h-358z" />
    <glyph glyph-name="O" unicode="O" 
d="M806 256l179 512h-358l-180 -512h359zM268 0l-179 256l179 512l359 256h537l179 -256l-179 -512l-358 -256h-538z" />
    <glyph glyph-name="P" unicode="P" 
d="M940 640l45 128h-358l-45 -128h358zM0 0l358 1024h806l179 -256l-134 -384h-717l-134 -384h-358z" />
    <glyph glyph-name="Q" unicode="Q" 
d="M806 256l-179 256h268l90 256h-358l-180 -512h359zM268 0l-179 256l179 512l359 256h537l179 -256l-179 -512l179 -256h-448v64l-89 -64h-538z" />
    <glyph glyph-name="R" unicode="R" 
d="M940 640l45 128h-358l-45 -128h358zM0 0l358 1024h806l179 -256l-134 -384h-179l134 -384h-358l-135 384h-179l-134 -384h-358z" />
    <glyph glyph-name="S" unicode="S" 
d="M0 0l89 256h717l45 128h-583l-89 128l89 256l359 256h806l-90 -256h-716l-45 -128h582l90 -128l-90 -256l-358 -256h-806z" />
    <glyph glyph-name="T" unicode="T" 
d="M358 0l269 768h-359l90 256h1075l-90 -256h-358l-269 -768h-358z" />
    <glyph glyph-name="U" unicode="U" 
d="M268 0l-179 256l269 768h358l-269 -768h359l269 768h358l-269 -768l-358 -256h-538z" />
    <glyph glyph-name="V" unicode="V" 
d="M537 -192l-403 576l224 640h358l-209 -598l120 -170l239 170l209 598h358l-269 -768l-627 -448v0z" />
    <glyph glyph-name="W" unicode="W" horiz-adv-x="1344" 
d="M0 0l358 1024h358l-179 -512l358 256l180 -256l179 512h358l-358 -1024h-179l-269 384l-538 -384h-268z" />
    <glyph glyph-name="X" unicode="X" 
d="M0 0l418 597l-150 427h359l134 -384h45l269 384h358l-418 -598l149 -426h-358l-135 384h-44l-269 -384h-358z" />
    <glyph glyph-name="Y" unicode="Y" 
d="M358 0l89 256h-89l-179 256l179 512h358l-179 -512h358l180 512h358l-179 -512l-359 -256h-89l-90 -256h-358z" />
    <glyph glyph-name="Z" unicode="Z" 
d="M0 0l89 256l717 512h-538l90 256h1075l-90 -256l-716 -512h537l-89 -256h-1075z" />
    <glyph glyph-name="bracketleft" unicode="[" horiz-adv-x="537" 
d="M0 0l358 1024h448l-90 -256h-89l-180 -512h90l-90 -256h-447z" />
    <glyph glyph-name="backslash" unicode="\" 
d="M895 0l-716 1024h358l717 -1024h-359z" />
    <glyph glyph-name="bracketright" unicode="]" horiz-adv-x="537" 
d="M0 0l89 256h90l179 512h-90l90 256h448l-359 -1024h-447z" />
    <glyph glyph-name="asciicircum" unicode="^" horiz-adv-x="448" 
d="M179 512l179 512h358l-179 -512h-358z" />
    <glyph glyph-name="underscore" unicode="_" 
d="M0 0l89 256h1075l-89 -256h-1075z" />
    <glyph glyph-name="grave" unicode="`" horiz-adv-x="448" 
d="M179 512l179 512h358l-179 -512h-358z" />
    <glyph glyph-name="a" unicode="a" 
d="M895 512l90 256h-358l-90 -256h358zM0 0l268 768l359 256h537l179 -256l-268 -768h-359l90 256h-359l-89 -256h-358z" />
    <glyph glyph-name="b" unicode="b" 
d="M806 256v128h-314l-45 -128h359zM895 640l90 128h-358l-45 -128h313zM0 0l358 1024h806l179 -256l-179 -256v-256l-358 -256h-806z" />
    <glyph glyph-name="c" unicode="c" 
d="M268 0l-179 256l179 512l359 256h537l179 -256l-44 -128h-359l45 128h-358l-180 -512h359l45 128h358l-45 -128l-358 -256h-538z" />
    <glyph glyph-name="d" unicode="d" 
d="M806 256l179 512h-358l-180 -512h359zM0 0l358 1024h806l179 -256l-179 -512l-358 -256h-806z" />
    <glyph glyph-name="e" unicode="e" 
d="M0 0l358 1024h1075l-90 -256h-716l-45 -128h717l-90 -256h-717l-45 -128h717l-89 -256h-1075z" />
    <glyph glyph-name="f" unicode="f" 
d="M0 0l358 1024h1075l-90 -256h-716l-45 -128h717l-90 -256h-717l-134 -384h-358z" />
    <glyph glyph-name="g" unicode="g" 
d="M268 0l-179 256l179 512l359 256h806l-90 -256h-716l-180 -512h359l45 128h-180l90 256h538l-135 -384l-358 -256h-538z" />
    <glyph glyph-name="h" unicode="h" 
d="M0 0l358 1024h358l-134 -384h358l135 384h358l-358 -1024h-359l135 384h-359l-134 -384h-358z" />
    <glyph glyph-name="i" unicode="i" horiz-adv-x="448" 
d="M0 0l358 1024h358l-358 -1024h-358z" />
    <glyph glyph-name="j" unicode="j" 
d="M268 0l-179 256l90 256h358l-90 -256h359l179 512h-269l90 256h627l-269 -768l-358 -256h-538z" />
    <glyph glyph-name="k" unicode="k" 
d="M0 0l358 1024h358l-134 -384h224l269 384h358l-418 -598l149 -426h-358l-135 384h-179l-134 -384h-358z" />
    <glyph glyph-name="l" unicode="l" 
d="M0 0l358 1024h358l-269 -768h717l-89 -256h-1075z" />
    <glyph glyph-name="m" unicode="m" horiz-adv-x="1344" 
d="M0 0l358 1024h179l269 -384l537 384h269l-358 -1024h-359l180 512l-359 -256l-179 256l-179 -512h-358z" />
    <glyph glyph-name="n" unicode="n" 
d="M0 0l358 1024h179l358 -512l180 512h358l-358 -1024h-180l-358 512l-179 -512h-358z" />
    <glyph glyph-name="o" unicode="o" 
d="M806 256l179 512h-358l-180 -512h359zM268 0l-179 256l179 512l359 256h537l179 -256l-179 -512l-358 -256h-538z" />
    <glyph glyph-name="p" unicode="p" 
d="M940 640l45 128h-358l-45 -128h358zM0 0l358 1024h806l179 -256l-134 -384h-717l-134 -384h-358z" />
    <glyph glyph-name="q" unicode="q" 
d="M806 256l-179 256h268l90 256h-358l-180 -512h359zM268 0l-179 256l179 512l359 256h537l179 -256l-179 -512l179 -256h-448v64l-89 -64h-538z" />
    <glyph glyph-name="r" unicode="r" 
d="M940 640l45 128h-358l-45 -128h358zM0 0l358 1024h806l179 -256l-134 -384h-179l134 -384h-358l-135 384h-179l-134 -384h-358z" />
    <glyph glyph-name="s" unicode="s" 
d="M0 0l89 256h717l45 128h-583l-89 128l89 256l359 256h806l-90 -256h-716l-45 -128h582l90 -128l-90 -256l-358 -256h-806z" />
    <glyph glyph-name="t" unicode="t" 
d="M358 0l269 768h-359l90 256h1075l-90 -256h-358l-269 -768h-358z" />
    <glyph glyph-name="u" unicode="u" 
d="M268 0l-179 256l269 768h358l-269 -768h359l269 768h358l-269 -768l-358 -256h-538z" />
    <glyph glyph-name="v" unicode="v" 
d="M537 -192l-403 576l224 640h358l-209 -598l120 -170l239 170l209 598h358l-269 -768l-627 -448v0z" />
    <glyph glyph-name="w" unicode="w" horiz-adv-x="1344" 
d="M0 0l358 1024h358l-179 -512l358 256l180 -256l179 512h358l-358 -1024h-179l-269 384l-538 -384h-268z" />
    <glyph glyph-name="x" unicode="x" 
d="M0 0l418 597l-150 427h359l134 -384h45l269 384h358l-418 -598l149 -426h-358l-135 384h-44l-269 -384h-358z" />
    <glyph glyph-name="y" unicode="y" 
d="M358 0l89 256h-89l-179 256l179 512h358l-179 -512h358l180 512h358l-179 -512l-359 -256h-89l-90 -256h-358z" />
    <glyph glyph-name="z" unicode="z" 
d="M0 0l89 256l717 512h-538l90 256h1075l-90 -256l-716 -512h537l-89 -256h-1075z" />
    <glyph glyph-name="braceleft" unicode="{" horiz-adv-x="627" 
d="M89 0l134 384h-89l89 256h90l134 384h448l-89 -256h-90l-179 -512h90l-90 -256h-448z" />
    <glyph glyph-name="bar" unicode="|" horiz-adv-x="448" 
d="M0 0l358 1024h358l-358 -1024h-358z" />
    <glyph glyph-name="braceright" unicode="}" horiz-adv-x="627" 
d="M0 0l89 256h90l179 512h-90l90 256h448l-135 -384h90l-90 -256h-89l-135 -384h-447z" />
    <glyph glyph-name="asciitilde" unicode="~" horiz-adv-x="806" 
d="M134 384l89 256h717l-89 -256h-717z" />
    <glyph glyph-name="quoteleft" unicode="&#x2018;" horiz-adv-x="448" 
d="M179 512l179 512h358l-179 -512h-358z" />
    <glyph glyph-name="quoteright" unicode="&#x2019;" horiz-adv-x="448" 
d="M179 512l179 512h358l-179 -512h-358z" />
    <glyph glyph-name="quotedblleft" unicode="&#x201c;" horiz-adv-x="896" 
d="M179 512l179 512h358l-179 -512h-358zM627 512l179 512h358l-179 -512h-358z" />
    <glyph glyph-name="quotedblright" unicode="&#x201d;" horiz-adv-x="896" 
d="M179 512l179 512h358l-179 -512h-358zM627 512l179 512h358l-179 -512h-358z" />
  </font>
</defs>
</svg>
