<?xml version="1.0" standalone="no"?>
<!DOCTYPE svg PUBLIC "-//W3C//DTD SVG 1.1//EN" "http://www.w3.org/Graphics/SVG/1.1/DTD/svg11.dtd" >
<svg>
<metadata>
Created by FontForge 20090622 at Wed Nov 20 14:40:29 2019
 By deploy user
Copyright 1990-2001 Bitstream Inc. All rights reserved.
</metadata>
<defs>
<font id="FuturaBT-Light" horiz-adv-x="1024" >
  <font-face 
    font-family="Futura Lt BT"
    font-weight="400"
    font-stretch="normal"
    units-per-em="2048"
    panose-1="2 11 4 2 2 2 4 2 3 3"
    ascent="1556"
    descent="-492"
    x-height="887"
    cap-height="1464"
    bbox="-342 -483 2181 1972"
    underline-thickness="80"
    underline-position="-183"
    unicode-range="U+0020-U+F002"
  />
<missing-glyph horiz-adv-x="1229" 
d="M102 -362v1806h1024v-1806h-1024zM217 -248h795v1577h-795v-1577z" />
    <glyph glyph-name=".notdef" horiz-adv-x="1229" 
d="M102 -362v1806h1024v-1806h-1024zM217 -248h795v1577h-795v-1577z" />
    <glyph glyph-name=".null" horiz-adv-x="0" 
 />
    <glyph glyph-name="nonmarkingreturn" horiz-adv-x="590" 
 />
    <glyph glyph-name="space" unicode=" " horiz-adv-x="590" 
 />
    <glyph glyph-name="exclam" unicode="!" horiz-adv-x="635" 
d="M256 303v1194h123v-1194h-123zM215 63q0 43 29.5 73t72.5 30t73 -30t30 -73t-30 -72.5t-73 -29.5t-72.5 29.5t-29.5 72.5z" />
    <glyph glyph-name="quotedbl" unicode="&#x22;" horiz-adv-x="551" 
d="M451 1434v-553h-86v553h86zM186 1434v-553h-86v553h86z" />
    <glyph glyph-name="numbersign" unicode="#" horiz-adv-x="1575" 
d="M979 866h-270l-99 -282h269zM915 1454l-174 -498h271l176 498h110l-174 -498h322l-31 -90h-323l-101 -282h348l-30 -90h-351l-174 -494h-112l176 494h-270l-179 -494h-110l174 494h-334l31 90h336l100 282h-360l28 90h365l176 498h110z" />
    <glyph glyph-name="dollar" unicode="$" horiz-adv-x="1180" 
d="M555 1352q-88 -14 -143.5 -74.5t-55.5 -142.5t47 -141.5t152 -110.5v469zM635 117q109 14 171 92t62 201q0 99 -55.5 171t-177.5 130v-594zM635 -168h-80v174q-137 0 -236.5 67.5t-158.5 200.5l114 58q31 -99 101.5 -153.5t179.5 -63.5v633q-178 85 -255 174.5t-77 207.5
q0 135 87.5 223t244.5 111v101h80v-99q104 -12 176.5 -56t116.5 -122l-105 -57q-27 53 -76 84.5t-112 35.5v-505q204 -97 282 -191.5t78 -234.5q0 -166 -96.5 -278.5t-263.5 -139.5v-170z" />
    <glyph glyph-name="percent" unicode="%" horiz-adv-x="1497" 
d="M967 336q0 -138 44.5 -210.5t129.5 -72.5q84 0 130 73.5t46 209.5q0 138 -44.5 209t-131.5 71q-85 0 -129.5 -72t-44.5 -208zM1436 334q0 -177 -78 -275t-217 -98t-216 98t-77 275t77 276t216 99t217 -99t78 -276zM182 1106q0 -138 45 -210.5t129 -72.5q85 0 130.5 73.5
t45.5 209.5q0 138 -44.5 209t-131.5 71q-84 0 -129 -72t-45 -208zM651 1104q0 -177 -78 -276t-217 -99q-138 0 -215.5 98.5t-77.5 276.5q0 177 77.5 276t215.5 99q139 0 217 -99t78 -276zM270 -39l842 1518h109l-842 -1518h-109z" />
    <glyph glyph-name="ampersand" unicode="&#x26;" horiz-adv-x="1311" 
d="M895 301l-383 467l-66 -47q-147 -107 -190 -175.5t-43 -158.5q0 -129 90 -218t219 -89q87 0 179.5 55t193.5 166zM551 907l65 45q78 54 116 113t38 123q0 71 -52 119.5t-128 48.5q-83 0 -136 -47t-53 -121q0 -39 18 -83t50 -87zM1145 0l-182 215q-105 -123 -214.5 -182.5
t-232.5 -59.5q-189 0 -309.5 115t-120.5 293q0 128 85.5 240.5t277.5 232.5l-56 74q-69 91 -91.5 148t-22.5 120q0 113 89.5 187.5t229.5 74.5q127 0 208 -76t81 -196q0 -99 -63.5 -183t-207.5 -174l361 -446q47 57 91 118t83 124l86 -50q-49 -80 -98 -149.5t-101 -130.5
l252 -295h-145z" />
    <glyph glyph-name="quotesingle" unicode="'" horiz-adv-x="285" 
d="M186 1434v-553h-86v553h86z" />
    <glyph glyph-name="parenleft" unicode="(" horiz-adv-x="559" 
d="M512 1483q-107 -217 -160 -449t-53 -483q0 -275 53 -509t160 -435l-90 -53q-119 222 -178.5 472.5t-59.5 528.5q0 275 59.5 518t178.5 459z" />
    <glyph glyph-name="parenright" unicode=")" horiz-adv-x="559" 
d="M47 1483l90 49q120 -216 179 -459t59 -518q0 -278 -59.5 -528.5t-178.5 -472.5l-90 53q108 203 161.5 437t53.5 507q0 248 -53.5 480.5t-161.5 451.5z" />
    <glyph glyph-name="asterisk" unicode="*" horiz-adv-x="854" 
d="M162 928l-43 78l233 122l-233 129l43 78l227 -145l-6 274h88l-8 -274l229 143l43 -76l-233 -129l233 -122l-47 -78l-227 139l8 -266h-86l8 264z" />
    <glyph glyph-name="plus" unicode="+" horiz-adv-x="1706" 
d="M893 1221v-570h559v-82h-559v-569h-80v569h-559v82h559v570h80z" />
    <glyph glyph-name="comma" unicode="," horiz-adv-x="590" 
d="M324 254l145 -61l-264 -515l-84 39z" />
    <glyph glyph-name="hyphen" unicode="-" horiz-adv-x="711" 
d="M137 506h436v-129h-436v129z" />
    <glyph glyph-name="period" unicode="." horiz-adv-x="590" 
d="M193 84q0 43 29.5 72.5t72.5 29.5t72.5 -29.5t29.5 -72.5t-29.5 -72.5t-72.5 -29.5t-72.5 29.5t-29.5 72.5z" />
    <glyph glyph-name="slash" unicode="/" horiz-adv-x="825" 
d="M717 1497h108l-716 -1687h-109z" />
    <glyph glyph-name="zero" unicode="0" horiz-adv-x="1180" 
d="M236 717q0 -299 94.5 -468t261.5 -169q174 0 264 163t90 478q0 311 -91.5 475t-266.5 164q-165 0 -258.5 -170.5t-93.5 -472.5zM588 -39q-225 0 -355.5 202t-130.5 556q0 355 130.5 557.5t359.5 202.5q228 0 357.5 -201.5t129.5 -558.5q0 -360 -129.5 -559t-361.5 -199z
" />
    <glyph glyph-name="one" unicode="1" horiz-adv-x="1180" 
d="M545 0v1331h-264l63 119h330v-1450h-129z" />
    <glyph glyph-name="two" unicode="2" horiz-adv-x="1180" 
d="M1012 115v-115h-940l315 346l96 105q391 425 391 612q0 132 -89.5 214.5t-233.5 82.5q-147 0 -232.5 -92.5t-85.5 -253.5h-131v14q0 209 124.5 330t338.5 121q206 0 329.5 -111.5t123.5 -296.5q0 -234 -345 -602l-9 -10l-322 -344h670z" />
    <glyph glyph-name="three" unicode="3" horiz-adv-x="1180" 
d="M242 368q9 -141 90 -214.5t229 -73.5q153 0 239.5 82t86.5 227q0 147 -87.5 230t-242.5 83q-23 0 -34.5 -0.5t-20.5 -0.5v126l41 -3t24 -1q140 0 218.5 70t78.5 194t-78.5 199.5t-207.5 75.5q-118 0 -190.5 -62t-86.5 -174h-143q17 164 129.5 258.5t290.5 94.5
q189 0 306 -105t117 -274q0 -125 -66.5 -214t-186.5 -126q133 -45 205.5 -141t72.5 -230q0 -195 -126 -311.5t-339 -116.5q-209 0 -328 105.5t-135 302.5z" />
    <glyph glyph-name="four" unicode="4" horiz-adv-x="1180" 
d="M721 485v660l-461 -660h461zM721 0v371h-660l793 1128v-1014h150v-114h-150v-371h-133z" />
    <glyph glyph-name="five" unicode="5" horiz-adv-x="1180" 
d="M350 883q56 24 110 36.5t107 12.5q208 0 335.5 -127.5t127.5 -333.5q0 -229 -137 -370.5t-358 -141.5q-155 0 -267 69.5t-186 211.5l104 77q64 -122 150 -179.5t205 -57.5q161 0 256.5 104t95.5 279q0 163 -97.5 258.5t-265.5 95.5q-93 0 -169 -26.5t-134 -79.5l-41 4
l187 735h592v-113h-500z" />
    <glyph glyph-name="six" unicode="6" horiz-adv-x="1180" 
d="M260 416q0 -155 89.5 -247.5t238.5 -92.5q147 0 236 97.5t89 260.5q0 146 -90 239t-233 93q-146 0 -238 -97.5t-92 -252.5zM391 805q58 37 115.5 55.5t118.5 18.5q188 0 307 -125.5t119 -325.5q0 -208 -134.5 -338.5t-347.5 -130.5q-204 0 -325 122t-121 327
q0 120 52.5 244.5t234.5 377.5l342 477l108 -67z" />
    <glyph glyph-name="seven" unicode="7" horiz-adv-x="1180" 
d="M223 18l668 1319h-707v113h899l-737 -1495z" />
    <glyph glyph-name="eight" unicode="8" horiz-adv-x="1180" 
d="M590 80q152 0 240 85.5t88 233.5q0 150 -88.5 237t-239.5 87q-152 0 -239 -86.5t-87 -237.5q0 -149 86.5 -234t239.5 -85zM594 842q126 0 199 69t73 189t-74.5 191t-199.5 71t-199 -71t-74 -191q0 -119 74 -188.5t201 -69.5zM412 788q-110 36 -171 123t-61 209
q0 157 115 258t297 101q187 0 298 -102.5t111 -272.5q0 -113 -59 -193.5t-172 -122.5q133 -35 209 -139.5t76 -251.5q0 -203 -123.5 -319.5t-339.5 -116.5t-341.5 116t-125.5 316q0 150 76 255t211 140z" />
    <glyph glyph-name="nine" unicode="9" horiz-adv-x="1180" 
d="M915 1022q0 155 -89.5 248.5t-237.5 93.5t-237 -98t-89 -260q0 -147 89.5 -240.5t232.5 -93.5q146 0 238.5 98t92.5 252zM782 633q-56 -37 -112.5 -54.5t-118.5 -17.5q-189 0 -308.5 124.5t-119.5 324.5q0 208 134 338.5t347 130.5q204 0 326.5 -122.5t122.5 -326.5
q0 -125 -59.5 -259t-229.5 -363l-350 -476l-109 66z" />
    <glyph glyph-name="colon" unicode=":" horiz-adv-x="635" 
d="M215 84q0 43 29.5 72.5t72.5 29.5t73 -29.5t30 -72.5t-30 -72.5t-73 -29.5t-72.5 29.5t-29.5 72.5zM215 760q0 43 29.5 72.5t72.5 29.5t73 -29.5t30 -72.5t-30 -73t-73 -30t-72.5 30t-29.5 73z" />
    <glyph glyph-name="semicolon" unicode=";" horiz-adv-x="635" 
d="M301 760q0 43 29.5 72.5t72.5 29.5t73 -29.5t30 -72.5t-30 -73t-73 -30t-72.5 30t-29.5 73zM332 254l145 -61l-264 -515l-84 39z" />
    <glyph glyph-name="less" unicode="&#x3c;" horiz-adv-x="1706" 
d="M1442 1034l-1045 -424l1045 -424v-88l-1178 482v61l1178 483v-90z" />
    <glyph glyph-name="equal" unicode="=" horiz-adv-x="1706" 
d="M1452 469v-82h-1198v82h1198zM1452 831v-79h-1198v79h1198z" />
    <glyph glyph-name="greater" unicode="&#x3e;" horiz-adv-x="1706" 
d="M1442 641v-61l-1178 -482v88l1045 424l-1045 424v90z" />
    <glyph glyph-name="question" unicode="?" horiz-adv-x="1053" 
d="M401 63q0 43 30 73t73 30t72.5 -30t29.5 -73t-29.5 -72.5t-72.5 -29.5t-73 29.5t-30 72.5zM291 1096h-119v32q0 172 97 270.5t266 98.5q152 0 242.5 -90t90.5 -242q0 -111 -48 -186t-195 -170l-72 -45q-199 -123 -199 -232q0 -72 46 -115.5t122 -43.5q89 0 138 46.5
t49 131.5v18h110v-24q0 -135 -80 -207t-231 -72q-124 0 -202.5 75t-78.5 194q0 87 46 153.5t171 149.5l73 46q226 143 226 273q0 97 -58 155t-157 58q-114 0 -175.5 -70t-61.5 -198v-6z" />
    <glyph glyph-name="at" unicode="@" horiz-adv-x="2048" 
d="M1303 827l61 129h80l-137 -553q-10 -36 -15.5 -64.5t-5.5 -43.5q0 -44 30.5 -68t86.5 -24q48 0 100 19.5t103 56.5q101 74 162 207t61 282q0 273 -199.5 439.5t-525.5 166.5q-168 0 -310.5 -48t-258.5 -144q-154 -128 -232 -297t-78 -375q0 -327 221.5 -522t591.5 -195
q161 0 324 50.5t299 142.5l29 -45q-146 -110 -308.5 -165t-339.5 -55q-187 0 -343 46.5t-277 138.5q-152 115 -226.5 267.5t-74.5 348.5q0 162 50.5 307t147.5 265q144 175 345.5 265.5t449.5 90.5q160 0 304.5 -44t248.5 -124q128 -98 194 -226.5t66 -277.5
q0 -169 -63 -308t-181 -232q-67 -54 -145.5 -82.5t-159.5 -28.5q-95 0 -143.5 36.5t-48.5 108.5q0 12 3 34q1 3 1 5q-49 -88 -125 -136t-166 -48q-154 0 -233.5 83t-79.5 243q0 228 134.5 386t326.5 158q95 0 160 -43t96 -127zM1219 467l63 254q-22 99 -81.5 151t-151.5 52
q-152 0 -255.5 -138t-103.5 -340q0 -115 57.5 -180t159.5 -65q111 0 196 72.5t116 193.5z" />
    <glyph glyph-name="A" unicode="A" horiz-adv-x="1223" 
d="M356 610h510l-250 637zM-18 0l643 1522l616 -1522h-145l-187 496h-598l-194 -496h-135z" />
    <glyph glyph-name="B" unicode="B" horiz-adv-x="1133" 
d="M315 813h166q183 0 258.5 60t75.5 200q0 151 -73.5 213t-260.5 62h-166v-535zM315 115h170q145 0 200 12t93 41q47 36 75 99.5t28 135.5q0 88 -31 154.5t-86 99.5q-38 22 -89.5 31.5t-160.5 9.5h-29h-170v-583zM182 0v1464h254q167 0 241 -16t126 -55q73 -55 111 -134.5
t38 -175.5q0 -117 -61 -199t-168 -108q141 -21 221 -113t80 -233q0 -103 -31 -183t-94 -138q-64 -60 -154 -84.5t-307 -24.5h-256z" />
    <glyph glyph-name="C" unicode="C" horiz-adv-x="1464" 
d="M1358 1196q-109 94 -223 139t-240 45q-284 0 -461.5 -180t-177.5 -469q0 -145 43.5 -261t132.5 -206q88 -88 201.5 -134t243.5 -46q126 0 246 43t227 127v-156q-108 -66 -228.5 -101.5t-238.5 -35.5q-159 0 -304 57t-249 160q-107 106 -162 246t-55 307q0 164 56.5 306
t162.5 245q103 101 248.5 158t302.5 57q140 0 259.5 -38.5t217.5 -115.5z" />
    <glyph glyph-name="D" unicode="D" horiz-adv-x="1427" 
d="M315 115h187q227 0 322 25.5t161 86.5q92 86 139 214t47 292q0 168 -47.5 296t-140.5 210q-70 63 -171 89t-353 26h-25h-119v-1239zM182 0v1464h228q305 0 433 -30t220 -103q122 -97 186 -250t64 -350t-64 -350.5t-184 -245.5q-95 -73 -217 -104t-393 -31h-45h-228z" />
    <glyph glyph-name="E" unicode="E" horiz-adv-x="1051" 
d="M182 0v1464h725v-125h-592v-458h592v-125h-592v-631h592v-125h-725z" />
    <glyph glyph-name="F" unicode="F" horiz-adv-x="1026" 
d="M182 0v1464h725v-125h-592v-458h570v-125h-570v-756h-133z" />
    <glyph glyph-name="G" unicode="G" horiz-adv-x="1673" 
d="M1382 1096q-89 138 -219 209t-293 71q-272 0 -443 -184t-171 -477q0 -131 45.5 -247t132.5 -206q88 -89 197 -133.5t239 -44.5q246 0 400.5 145t158.5 379h-505v115h651v-16q0 -350 -191 -548t-526 -198q-333 0 -539 212t-206 556q0 158 52 298.5t150 244.5
q106 113 239.5 169t297.5 56q223 0 382 -80.5t245 -236.5z" />
    <glyph glyph-name="H" unicode="H" horiz-adv-x="1427" 
d="M182 0v1464h133v-594h797v594h133v-1464h-133v756h-797v-756h-133z" />
    <glyph glyph-name="I" unicode="I" horiz-adv-x="498" 
d="M182 0v1464h133v-1464h-133z" />
    <glyph glyph-name="J" unicode="J" horiz-adv-x="764" 
d="M467 401v1063h133v-1149q0 -174 -79 -264t-232 -90q-93 0 -164.5 38.5t-118.5 113.5l94 86q42 -57 87.5 -84t97.5 -27q98 0 140 70.5t42 242.5z" />
    <glyph glyph-name="K" unicode="K" horiz-adv-x="1176" 
d="M182 0v1464h133v-686l662 686h174l-694 -700l727 -764h-193l-676 743v-743h-133z" />
    <glyph glyph-name="L" unicode="L" horiz-adv-x="846" 
d="M182 0v1464h133v-1339h502v-125h-635z" />
    <glyph glyph-name="M" unicode="M" horiz-adv-x="1712" 
d="M850 -57l-514 1175l-111 -1118h-137l199 1526l561 -1303l582 1303l188 -1526h-137l-109 1118z" />
    <glyph glyph-name="N" unicode="N" horiz-adv-x="1526" 
d="M182 0v1526l1037 -1225v1163h124v-1507l-1036 1227v-1184h-125z" />
    <glyph glyph-name="O" unicode="O" horiz-adv-x="1792" 
d="M895 80q130 0 246 48t209 140q91 93 139.5 211.5t48.5 249.5q0 132 -48 249.5t-140 211.5q-91 92 -207.5 140t-247.5 48q-130 0 -245 -48t-208 -140q-92 -95 -140 -211.5t-48 -249.5q0 -132 48 -249.5t140 -211.5q92 -93 206 -140.5t247 -47.5zM1679 729
q0 -155 -59 -294.5t-170 -248.5q-113 -110 -255 -167.5t-300 -57.5t-299.5 57.5t-253.5 167.5q-112 111 -170.5 249.5t-58.5 293.5q0 157 58.5 296.5t170.5 250.5q110 109 251 165t302 56q162 0 303.5 -56.5t251.5 -164.5q112 -111 170.5 -250.5t58.5 -296.5z" />
    <glyph glyph-name="P" unicode="P" 
d="M182 0v1464h267q158 0 232.5 -17t129.5 -56q69 -50 107 -137t38 -193q0 -209 -117 -306.5t-370 -97.5h-154v-657h-133zM315 774h91q242 0 325.5 61.5t83.5 215.5q0 65 -19 119.5t-57 97.5q-39 44 -106 62t-227 18h-91v-574z" />
    <glyph glyph-name="Q" unicode="Q" horiz-adv-x="1792" 
d="M926 600h164l272 -317q88 95 132 207.5t44 240.5q0 132 -48.5 249.5t-139.5 209.5t-208.5 141t-246.5 49q-128 0 -244 -48.5t-209 -141.5q-91 -93 -138.5 -209.5t-47.5 -249.5t47.5 -250t138.5 -209q93 -92 209 -140t248 -48q106 0 202 31.5t165 89.5zM1692 -102h-162
l-178 206q-106 -68 -221 -101.5t-248 -33.5q-155 0 -294 56.5t-247 162.5q-112 111 -170.5 249.5t-58.5 293.5q0 156 58.5 295t170.5 248q110 108 252 165.5t301 57.5t302 -57.5t253 -165.5q112 -109 170.5 -248t58.5 -295q0 -160 -58.5 -295.5t-176.5 -249.5z" />
    <glyph glyph-name="R" unicode="R" horiz-adv-x="1081" 
d="M315 1348v-541h134q186 0 259.5 59.5t73.5 202.5q0 151 -76 215t-257 64h-134zM1071 0h-162l-514 698h-80v-698h-133v1464h269q238 0 356.5 -99t118.5 -300q0 -171 -101.5 -269t-279.5 -98z" />
    <glyph glyph-name="S" unicode="S" horiz-adv-x="1020" 
d="M70 246l114 61q32 -108 110.5 -167.5t188.5 -59.5q139 0 217 82t78 227q0 106 -52.5 176t-225.5 162q-221 117 -294 206t-73 214q0 156 105.5 254t273.5 98q110 0 191.5 -46.5t132.5 -139.5l-103 -62q-32 63 -90.5 96t-138.5 33q-108 0 -172 -63.5t-64 -171.5
q0 -154 254 -287l70 -37q187 -103 250 -194.5t63 -237.5q0 -197 -115 -312.5t-313 -115.5q-144 0 -246.5 71.5t-160.5 213.5z" />
    <glyph glyph-name="T" unicode="T" horiz-adv-x="1018" 
d="M442 0v1339h-403v125h940v-125h-404v-1339h-133z" />
    <glyph glyph-name="U" unicode="U" horiz-adv-x="1417" 
d="M176 1464h131v-956q0 -217 99 -322.5t303 -105.5q201 0 300 105.5t99 322.5v956h133v-913q0 -297 -132 -443.5t-400 -146.5q-269 0 -401 146.5t-132 443.5v913z" />
    <glyph glyph-name="V" unicode="V" horiz-adv-x="1128" 
d="M555 -57l-573 1521h153l422 -1192l444 1192h146z" />
    <glyph glyph-name="W" unicode="W" horiz-adv-x="1839" 
d="M530 -57l-505 1521h139l366 -1169l390 1227l405 -1217l352 1159h138l-490 -1521l-405 1243z" />
    <glyph glyph-name="X" unicode="X" horiz-adv-x="991" 
d="M121 0h-146l447 770l-404 694h150l330 -581l333 581h144l-404 -690l445 -774h-148l-372 649z" />
    <glyph glyph-name="Y" unicode="Y" horiz-adv-x="1118" 
d="M496 0v674l-486 790h160l393 -671l395 671h152l-481 -790v-674h-133z" />
    <glyph glyph-name="Z" unicode="Z" horiz-adv-x="1147" 
d="M25 0l870 1343h-743v121h970l-866 -1341h778v-123h-1009z" />
    <glyph glyph-name="bracketleft" unicode="[" horiz-adv-x="559" 
d="M221 1497h291v-98h-174v-1712h174v-99h-291v1909z" />
    <glyph glyph-name="backslash" unicode="\" horiz-adv-x="825" 
d="M717 -190l-717 1687h109l716 -1687h-108z" />
    <glyph glyph-name="bracketright" unicode="]" horiz-adv-x="559" 
d="M338 1497v-1909h-291v99h176v1712h-176v98h291z" />
    <glyph glyph-name="asciicircum" unicode="^" horiz-adv-x="2048" 
d="M1081 1458l541 -557h-125l-473 469l-475 -469h-125l539 557h118z" />
    <glyph glyph-name="underscore" unicode="_" 
d="M1024 -403v-80h-1024v80h1024z" />
    <glyph glyph-name="grave" unicode="`" 
d="M645 1030h-94l-283 350h164z" />
    <glyph glyph-name="a" unicode="a" horiz-adv-x="1108" 
d="M221 434q0 -172 77.5 -265t221.5 -93q140 0 220.5 101.5t80.5 279.5q0 163 -80 256.5t-219 93.5t-220 -99.5t-81 -273.5zM819 0v162q-44 -98 -123.5 -149.5t-187.5 -51.5q-191 0 -307.5 131t-116.5 346q0 213 115 347.5t297 134.5q113 0 195.5 -49.5t127.5 -145.5v162
h123v-887h-123z" />
    <glyph glyph-name="b" unicode="b" horiz-adv-x="1108" 
d="M883 434q0 174 -81 273.5t-220 99.5t-218 -93.5t-79 -256.5q0 -178 80.5 -279.5t220.5 -101.5q143 0 220 92.5t77 265.5zM287 0h-123v1550h123v-825q45 96 126.5 145.5t194.5 49.5q182 0 297 -134.5t115 -347.5q0 -215 -116.5 -346t-307.5 -131q-107 0 -186 51t-123 150
v-162z" />
    <glyph glyph-name="c" unicode="c" horiz-adv-x="934" 
d="M854 725q-62 43 -132 64.5t-144 21.5q-165 0 -263 -105.5t-98 -281.5q0 -156 101.5 -257t259.5 -101q72 0 145.5 25t144.5 75v-135q-65 -37 -144 -55.5t-169 -18.5q-203 0 -333 133.5t-130 341.5q0 217 135.5 352.5t352.5 135.5q80 0 150.5 -15.5t125.5 -44.5z" />
    <glyph glyph-name="d" unicode="d" horiz-adv-x="1108" 
d="M225 434q0 -172 77.5 -265t221.5 -93q139 0 219 101.5t80 279.5q0 163 -79 256.5t-218 93.5t-220 -99.5t-81 -273.5zM821 0v162q-44 -99 -123 -150t-186 -51q-191 0 -307.5 131t-116.5 346q0 213 115 347.5t297 134.5q113 0 194.5 -49.5t126.5 -145.5v825h125v-1550h-125
z" />
    <glyph glyph-name="e" unicode="e" horiz-adv-x="1018" 
d="M780 545q-9 122 -81 189t-195 67q-112 0 -187.5 -70t-87.5 -186h551zM926 440h-705q5 -172 86 -270t217 -98q98 0 172 53t123 160l113 -62q-68 -135 -166.5 -198.5t-241.5 -63.5q-195 0 -315.5 130.5t-120.5 342.5q0 218 119.5 352t312.5 134q184 0 295 -123.5
t111 -329.5v-27z" />
    <glyph glyph-name="f" unicode="f" horiz-adv-x="530" 
d="M193 0v782h-166v105h166v256q0 267 50 346.5t183 79.5q33 0 63 -5.5t56 -15.5l-23 -108q-24 12 -46.5 18t-41.5 6q-65 0 -92 -51.5t-27 -189.5v-336h195v-105h-195v-782h-122z" />
    <glyph glyph-name="g" unicode="g" horiz-adv-x="1108" 
d="M944 887v-733q0 -175 -9.5 -267t-31.5 -137q-46 -99 -141 -147.5t-240 -48.5q-177 0 -275.5 68.5t-119.5 207.5h154q15 -82 78.5 -124t172.5 -42q82 0 147.5 29t98.5 80q22 33 31.5 76.5t9.5 134.5v47v133q-41 -95 -125.5 -149t-193.5 -54q-187 0 -298.5 130t-111.5 349
q0 217 114 348.5t302 131.5q105 0 190.5 -54.5t122.5 -144.5v166h125zM520 807q-138 0 -217.5 -98.5t-79.5 -270.5q0 -171 75.5 -266.5t209.5 -95.5q142 0 227.5 101t85.5 272q0 168 -80 263t-221 95z" />
    <glyph glyph-name="h" unicode="h" horiz-adv-x="1067" 
d="M164 0v1550h117v-800q54 85 132.5 127.5t180.5 42.5q151 0 235 -84t84 -234v-602h-125v547q0 133 -55.5 197.5t-171.5 64.5q-141 0 -207.5 -83.5t-66.5 -262.5v-463h-123z" />
    <glyph glyph-name="i" unicode="i" horiz-adv-x="471" 
d="M141 1233q0 39 28 66.5t67 27.5t67.5 -27.5t28.5 -66.5q0 -40 -27.5 -67t-68.5 -27q-40 0 -67.5 27t-27.5 67zM172 0v887h127v-887h-127z" />
    <glyph glyph-name="j" unicode="j" horiz-adv-x="471" 
d="M141 1233q0 39 28 66.5t67 27.5t67.5 -27.5t28.5 -66.5q0 -40 -27.5 -67t-68.5 -27q-40 0 -67.5 27t-27.5 67zM172 -446v1333h127v-1333h-127z" />
    <glyph glyph-name="k" unicode="k" horiz-adv-x="938" 
d="M164 0v1550h123v-1056l442 393h170l-475 -398l510 -489h-170l-477 459v-459h-123z" />
    <glyph glyph-name="l" unicode="l" horiz-adv-x="471" 
d="M299 0h-127v1550h127v-1550z" />
    <glyph glyph-name="m" unicode="m" horiz-adv-x="1616" 
d="M287 0h-123v887h123v-139q44 84 116 128t166 44q97 0 165.5 -44.5t105.5 -130.5q53 88 130 131.5t179 43.5q141 0 222 -85.5t81 -234.5v-600h-123v551q0 130 -53.5 196t-159.5 66q-127 0 -186.5 -83t-59.5 -263v-467h-122v551q0 136 -51 199t-158 63q-130 0 -191 -84
t-61 -262v-467z" />
    <glyph glyph-name="n" unicode="n" horiz-adv-x="1067" 
d="M164 0v887h117v-137q54 85 132.5 127.5t180.5 42.5q151 0 235 -84t84 -234v-602h-125v547q0 133 -55.5 197.5t-171.5 64.5q-141 0 -207.5 -83.5t-66.5 -262.5v-463h-123z" />
    <glyph glyph-name="o" unicode="o" horiz-adv-x="1143" 
d="M571 76q146 0 247.5 105.5t101.5 258.5q0 155 -101 260t-248 105q-146 0 -247 -105t-101 -260q0 -153 101 -258.5t247 -105.5zM567 -39q-95 0 -182 37.5t-158 107.5q-67 66 -102 152t-35 184q0 97 36 184t103 154q68 68 155 104t183 36q98 0 186.5 -36t157.5 -104
t105.5 -155t36.5 -183t-36 -182.5t-104 -153.5q-70 -70 -159.5 -107.5t-186.5 -37.5z" />
    <glyph glyph-name="p" unicode="p" horiz-adv-x="1108" 
d="M883 438q0 172 -78.5 270.5t-216.5 98.5q-142 0 -222.5 -95.5t-80.5 -262.5q0 -170 86.5 -271.5t228.5 -101.5q134 0 208.5 95.5t74.5 266.5zM164 -446v1333h119v-166q51 96 133 147.5t184 51.5q187 0 301.5 -131.5t114.5 -348.5q0 -218 -112 -348.5t-298 -130.5
q-107 0 -189 51.5t-134 151.5v-610h-119z" />
    <glyph glyph-name="q" unicode="q" horiz-adv-x="1108" 
d="M520 807q-138 0 -217.5 -98.5t-79.5 -270.5q0 -171 75.5 -266.5t209.5 -95.5q142 0 227.5 101t85.5 272q0 168 -80 263t-221 95zM944 -446h-119v610q-52 -100 -134.5 -151.5t-190.5 -51.5q-186 0 -298 130.5t-112 348.5q0 217 114 348.5t302 131.5q103 0 186 -52
t133 -147v166h119v-1333z" />
    <glyph glyph-name="r" unicode="r" horiz-adv-x="645" 
d="M287 709q68 115 133.5 163t152.5 48q26 0 52.5 -5t52.5 -14l-40 -116q-20 6 -41.5 10t-41.5 4q-111 0 -189.5 -104t-78.5 -259v-436h-123v887h123v-178z" />
    <glyph glyph-name="s" unicode="s" horiz-adv-x="782" 
d="M63 158l117 67q29 -74 84 -111.5t135 -37.5q78 0 124 39.5t46 105.5q0 102 -181 173q-19 7 -30 12q-140 55 -196 113.5t-56 144.5q0 113 80 185.5t207 72.5q108 0 184 -47t111 -134l-113 -63q-21 63 -70 96t-120 33q-64 0 -105.5 -37.5t-41.5 -93.5q0 -55 41 -91t170 -79
q146 -51 196.5 -111t50.5 -166q0 -122 -87 -195t-234 -73q-113 0 -194.5 51.5t-117.5 145.5z" />
    <glyph glyph-name="t" unicode="t" horiz-adv-x="508" 
d="M190 782h-163v105h163v364h121v-364h178v-105h-178v-782h-121v782z" />
    <glyph glyph-name="u" unicode="u" horiz-adv-x="1079" 
d="M287 887v-443q0 -202 57.5 -285t194.5 -83q136 0 195 84t59 284v443h122v-506q0 -207 -95 -313.5t-279 -106.5q-185 0 -281 106.5t-96 313.5v506h123z" />
    <glyph glyph-name="v" unicode="v" horiz-adv-x="874" 
d="M31 887h135l272 -672l271 672h137l-408 -944z" />
    <glyph glyph-name="w" unicode="w" horiz-adv-x="1327" 
d="M379 -57l-354 944h129l231 -639l279 686l278 -686l232 639h129l-355 -944l-282 706z" />
    <glyph glyph-name="x" unicode="x" horiz-adv-x="807" 
d="M31 887h153l217 -326l217 326h150l-299 -426l330 -461h-152l-248 358l-245 -358h-154l332 461z" />
    <glyph glyph-name="y" unicode="y" horiz-adv-x="825" 
d="M43 887h131l254 -694l234 694h131l-459 -1333h-127l155 452z" />
    <glyph glyph-name="z" unicode="z" horiz-adv-x="780" 
d="M23 0l495 776h-461v111h674l-491 -776h505v-111h-722z" />
    <glyph glyph-name="braceleft" unicode="{" 
d="M848 1389h-37q-135 0 -182 -51.5t-47 -213.5v-241q0 -175 -43 -248t-152 -105q109 -32 152 -104t43 -248v-241q0 -162 46.5 -212.5t180.5 -50.5h39v-88h-43q-189 0 -257.5 74.5t-68.5 300.5v240q0 158 -58 222t-200 64q-7 0 -21.5 -1t-23.5 -1v90q10 -1 20.5 -1.5
t28.5 -0.5q139 0 196.5 64.5t57.5 222.5v240q0 227 68.5 302t257.5 75h43v-88z" />
    <glyph glyph-name="bar" unicode="|" 
d="M557 1565v-2048h-90v2048h90z" />
    <glyph glyph-name="braceright" unicode="}" 
d="M545 1100v-240q0 -158 58 -222.5t200 -64.5q7 0 21.5 1t23.5 1v-90q-9 0 -23.5 1t-21.5 1q-142 0 -200 -64t-58 -222v-240q0 -226 -68.5 -300.5t-257.5 -74.5h-43v88h39q134 0 180.5 50.5t46.5 212.5v241q0 174 43.5 247t153.5 105q-110 32 -153.5 105t-43.5 248v241
q0 162 -47 213.5t-182 51.5h-37v88h43q189 0 257.5 -75t68.5 -302z" />
    <glyph glyph-name="asciitilde" unicode="~" horiz-adv-x="1706" 
d="M1530 647q-106 -74 -202 -110.5t-185 -36.5q-99 0 -266 61q-16 6 -22 8q-12 4 -33 12q-167 60 -257 60q-83 0 -175 -37.5t-212 -122.5v92q105 74 201 110t186 36q100 0 271 -61q12 -5 19 -7l27 -10q168 -61 261 -61q83 0 175 37.5t212 121.5v-92z" />
    <glyph glyph-name="Adieresis" unicode="&#xc4;" horiz-adv-x="1223" 
d="M356 610h510l-250 637zM-18 0l643 1522l616 -1522h-145l-187 496h-598l-194 -496h-135zM690 1766q0 40 29 69t69 29t68 -29t28 -69q0 -42 -27 -69t-69 -27t-70 27t-28 69zM340 1766q0 40 28 69t68 29t69 -29t29 -69q0 -41 -28 -68.5t-70 -27.5t-69 26.5t-27 69.5z" />
    <glyph glyph-name="Aring" unicode="&#xc5;" horiz-adv-x="1223" 
d="M492 1737q0 -56 38.5 -94.5t94.5 -38.5q55 0 94 38.5t39 94.5t-38.5 94.5t-94.5 38.5t-94.5 -38.5t-38.5 -94.5zM389 1737q0 100 68 167.5t168 67.5q99 0 167 -67.5t68 -167.5q0 -99 -68 -167.5t-167 -68.5t-167.5 68.5t-68.5 167.5zM356 610h510l-250 633zM-18 0
l624 1460h39l596 -1460h-145l-187 496h-598l-194 -496h-135z" />
    <glyph glyph-name="Ccedilla" unicode="&#xc7;" horiz-adv-x="1464" 
d="M1358 1196q-109 94 -223 139t-240 45q-284 0 -461.5 -180t-177.5 -469q0 -145 43.5 -261t132.5 -206q88 -88 201.5 -134t243.5 -46q126 0 246 43t227 127v-156q-108 -66 -228.5 -101.5t-238.5 -35.5q-159 0 -304 57t-249 160q-107 106 -162 246t-55 307q0 164 56.5 306
t162.5 245q103 101 248.5 158t302.5 57q140 0 259.5 -38.5t217.5 -115.5zM649 -379v70q98 -20 145 -26.5t80 -6.5q63 0 94 22t31 66q0 46 -35 68t-106 22q-6 0 -20 -1t-21 -1v166h61v-100h15q103 0 158 -39.5t55 -112.5q0 -82 -54 -123t-161 -41q-50 0 -109 9t-133 28z" />
    <glyph glyph-name="Eacute" unicode="&#xc9;" horiz-adv-x="1051" 
d="M182 0v1464h725v-125h-592v-458h592v-125h-592v-631h592v-125h-725zM408 1608l213 350h164l-283 -350h-94z" />
    <glyph glyph-name="Ntilde" unicode="&#xd1;" horiz-adv-x="1526" 
d="M182 0v1526l1037 -1225v1163h124v-1507l-1036 1227v-1184h-125zM1055 1872q-25 -90 -75.5 -137t-123.5 -47q-16 0 -32 2.5t-33 7.5l-80 27q-12 4 -26.5 6t-31.5 2q-31 0 -53.5 -15t-38.5 -46h-88q22 87 72.5 132.5t126.5 45.5q17 0 32 -2t27 -6l78 -27q17 -5 32 -7.5
t29 -2.5q36 0 60.5 17t36.5 50h88z" />
    <glyph glyph-name="Odieresis" unicode="&#xd6;" horiz-adv-x="1792" 
d="M895 80q130 0 246 48t209 140q91 93 139.5 211.5t48.5 249.5q0 132 -48 249.5t-140 211.5q-91 92 -207.5 140t-247.5 48q-130 0 -245 -48t-208 -140q-92 -95 -140 -211.5t-48 -249.5q0 -132 48 -249.5t140 -211.5q92 -93 206 -140.5t247 -47.5zM1679 729
q0 -155 -59 -294.5t-170 -248.5q-113 -110 -255 -167.5t-300 -57.5t-299.5 57.5t-253.5 167.5q-112 111 -170.5 249.5t-58.5 293.5q0 157 58.5 296.5t170.5 250.5q110 109 251 165t302 56q162 0 303.5 -56.5t251.5 -164.5q112 -111 170.5 -250.5t58.5 -296.5zM975 1766
q0 40 29 69t69 29t68 -29t28 -69q0 -42 -27 -69t-69 -27t-70 27t-28 69zM625 1766q0 40 28 69t68 29t69 -29t29 -69q0 -41 -28 -68.5t-70 -27.5t-69 26.5t-27 69.5z" />
    <glyph glyph-name="Udieresis" unicode="&#xdc;" horiz-adv-x="1417" 
d="M176 1464h131v-956q0 -217 99 -322.5t303 -105.5q201 0 300 105.5t99 322.5v956h133v-913q0 -297 -132 -443.5t-400 -146.5q-269 0 -401 146.5t-132 443.5v913zM787 1766q0 40 29 69t69 29t68 -29t28 -69q0 -42 -27 -69t-69 -27t-70 27t-28 69zM437 1766q0 40 28 69
t68 29t69 -29t29 -69q0 -41 -28 -68.5t-70 -27.5t-69 26.5t-27 69.5z" />
    <glyph glyph-name="aacute" unicode="&#xe1;" horiz-adv-x="1108" 
d="M221 434q0 -172 77.5 -265t221.5 -93q140 0 220.5 101.5t80.5 279.5q0 163 -80 256.5t-219 93.5t-220 -99.5t-81 -273.5zM819 0v162q-44 -98 -123.5 -149.5t-187.5 -51.5q-191 0 -307.5 131t-116.5 346q0 213 115 347.5t297 134.5q113 0 195.5 -49.5t127.5 -145.5v162
h123v-887h-123zM422 1030l213 350h164l-283 -350h-94z" />
    <glyph glyph-name="agrave" unicode="&#xe0;" horiz-adv-x="1108" 
d="M221 434q0 -172 77.5 -265t221.5 -93q140 0 220.5 101.5t80.5 279.5q0 163 -80 256.5t-219 93.5t-220 -99.5t-81 -273.5zM819 0v162q-44 -98 -123.5 -149.5t-187.5 -51.5q-191 0 -307.5 131t-116.5 346q0 213 115 347.5t297 134.5q113 0 195.5 -49.5t127.5 -145.5v162
h123v-887h-123zM688 1030h-94l-283 350h164z" />
    <glyph glyph-name="acircumflex" unicode="&#xe2;" horiz-adv-x="1108" 
d="M221 434q0 -172 77.5 -265t221.5 -93q140 0 220.5 101.5t80.5 279.5q0 163 -80 256.5t-219 93.5t-220 -99.5t-81 -273.5zM819 0v162q-44 -98 -123.5 -149.5t-187.5 -51.5q-191 0 -307.5 131t-116.5 346q0 213 115 347.5t297 134.5q113 0 195.5 -49.5t127.5 -145.5v162
h123v-887h-123zM268 1030l213 350h146l213 -350h-92l-193 250l-195 -250h-92z" />
    <glyph glyph-name="adieresis" unicode="&#xe4;" horiz-adv-x="1108" 
d="M221 434q0 -172 77.5 -265t221.5 -93q140 0 220.5 101.5t80.5 279.5q0 163 -80 256.5t-219 93.5t-220 -99.5t-81 -273.5zM819 0v162q-44 -98 -123.5 -149.5t-187.5 -51.5q-191 0 -307.5 131t-116.5 346q0 213 115 347.5t297 134.5q113 0 195.5 -49.5t127.5 -145.5v162
h123v-887h-123zM633 1188q0 40 29 69t69 29t68 -29t28 -69q0 -42 -27 -69t-69 -27t-70 27t-28 69zM283 1188q0 40 28 69t68 29t69 -29t29 -69q0 -41 -28 -68.5t-70 -27.5t-69 26.5t-27 69.5z" />
    <glyph glyph-name="atilde" unicode="&#xe3;" horiz-adv-x="1108" 
d="M221 434q0 -172 77.5 -265t221.5 -93q140 0 220.5 101.5t80.5 279.5q0 163 -80 256.5t-219 93.5t-220 -99.5t-81 -273.5zM819 0v162q-44 -98 -123.5 -149.5t-187.5 -51.5q-191 0 -307.5 131t-116.5 346q0 213 115 347.5t297 134.5q113 0 195.5 -49.5t127.5 -145.5v162
h123v-887h-123zM846 1294q-25 -90 -75.5 -137t-123.5 -47q-16 0 -32 2.5t-33 7.5l-80 27q-12 4 -26.5 6t-31.5 2q-31 0 -53.5 -15t-38.5 -46h-88q22 87 72.5 132.5t126.5 45.5q17 0 32 -2t27 -6l78 -27q17 -5 32 -7.5t29 -2.5q36 0 60.5 17t36.5 50h88z" />
    <glyph glyph-name="aring" unicode="&#xe5;" horiz-adv-x="1108" 
d="M221 434q0 -172 77.5 -265t221.5 -93q140 0 220.5 101.5t80.5 279.5q0 163 -80 256.5t-219 93.5t-220 -99.5t-81 -273.5zM819 0v162q-44 -98 -123.5 -149.5t-187.5 -51.5q-191 0 -307.5 131t-116.5 346q0 213 115 347.5t297 134.5q113 0 195.5 -49.5t127.5 -145.5v162
h123v-887h-123zM393 1221q0 -56 39 -95t94 -39q56 0 94.5 39t38.5 95t-38.5 95.5t-94.5 39.5q-55 0 -94 -39.5t-39 -95.5zM291 1221q0 99 67.5 167t167.5 68t168 -68t68 -167t-68 -167.5t-168 -68.5q-98 0 -166.5 68.5t-68.5 167.5z" />
    <glyph glyph-name="ccedilla" unicode="&#xe7;" horiz-adv-x="934" 
d="M854 725q-62 43 -132 64.5t-144 21.5q-165 0 -263 -105.5t-98 -281.5q0 -156 101.5 -257t259.5 -101q72 0 145.5 25t144.5 75v-135q-65 -37 -144 -55.5t-169 -18.5q-203 0 -333 133.5t-130 341.5q0 217 135.5 352.5t352.5 135.5q80 0 150.5 -15.5t125.5 -44.5zM334 -379
v70q98 -20 145 -26.5t80 -6.5q63 0 94 22t31 66q0 46 -35 68t-106 22q-6 0 -20 -1t-21 -1v166h61v-100h15q103 0 158 -39.5t55 -112.5q0 -82 -54 -123t-161 -41q-50 0 -109 9t-133 28z" />
    <glyph glyph-name="eacute" unicode="&#xe9;" horiz-adv-x="1018" 
d="M780 545q-9 122 -81 189t-195 67q-112 0 -187.5 -70t-87.5 -186h551zM926 440h-705q5 -172 86 -270t217 -98q98 0 172 53t123 160l113 -62q-68 -135 -166.5 -198.5t-241.5 -63.5q-195 0 -315.5 130.5t-120.5 342.5q0 218 119.5 352t312.5 134q184 0 295 -123.5
t111 -329.5v-27zM377 1030l213 350h164l-283 -350h-94z" />
    <glyph glyph-name="egrave" unicode="&#xe8;" horiz-adv-x="1018" 
d="M780 545q-9 122 -81 189t-195 67q-112 0 -187.5 -70t-87.5 -186h551zM926 440h-705q5 -172 86 -270t217 -98q98 0 172 53t123 160l113 -62q-68 -135 -166.5 -198.5t-241.5 -63.5q-195 0 -315.5 130.5t-120.5 342.5q0 218 119.5 352t312.5 134q184 0 295 -123.5
t111 -329.5v-27zM643 1030h-94l-283 350h164z" />
    <glyph glyph-name="ecircumflex" unicode="&#xea;" horiz-adv-x="1018" 
d="M780 545q-9 122 -81 189t-195 67q-112 0 -187.5 -70t-87.5 -186h551zM926 440h-705q5 -172 86 -270t217 -98q98 0 172 53t123 160l113 -62q-68 -135 -166.5 -198.5t-241.5 -63.5q-195 0 -315.5 130.5t-120.5 342.5q0 218 119.5 352t312.5 134q184 0 295 -123.5
t111 -329.5v-27zM223 1030l213 350h146l213 -350h-92l-193 250l-195 -250h-92z" />
    <glyph glyph-name="edieresis" unicode="&#xeb;" horiz-adv-x="1018" 
d="M780 545q-9 122 -81 189t-195 67q-112 0 -187.5 -70t-87.5 -186h551zM926 440h-705q5 -172 86 -270t217 -98q98 0 172 53t123 160l113 -62q-68 -135 -166.5 -198.5t-241.5 -63.5q-195 0 -315.5 130.5t-120.5 342.5q0 218 119.5 352t312.5 134q184 0 295 -123.5
t111 -329.5v-27zM588 1188q0 40 29 69t69 29t68 -29t28 -69q0 -42 -27 -69t-69 -27t-70 27t-28 69zM238 1188q0 40 28 69t68 29t69 -29t29 -69q0 -41 -28 -68.5t-70 -27.5t-69 26.5t-27 69.5z" />
    <glyph glyph-name="iacute" unicode="&#xed;" horiz-adv-x="471" 
d="M172 0v887h127v-887h-127zM103 1030l213 350h164l-283 -350h-94z" />
    <glyph glyph-name="igrave" unicode="&#xec;" horiz-adv-x="471" 
d="M172 0v887h127v-887h-127zM369 1030h-94l-283 350h164z" />
    <glyph glyph-name="icircumflex" unicode="&#xee;" horiz-adv-x="471" 
d="M172 0v887h127v-887h-127zM-51 1030l213 350h146l213 -350h-92l-193 250l-195 -250h-92z" />
    <glyph glyph-name="idieresis" unicode="&#xef;" horiz-adv-x="471" 
d="M172 0v887h127v-887h-127zM314 1188q0 40 29 69t69 29t68 -29t28 -69q0 -42 -27 -69t-69 -27t-70 27t-28 69zM-36 1188q0 40 28 69t68 29t69 -29t29 -69q0 -41 -28 -68.5t-70 -27.5t-69 26.5t-27 69.5z" />
    <glyph glyph-name="ntilde" unicode="&#xf1;" horiz-adv-x="1067" 
d="M164 0v887h117v-137q54 85 132.5 127.5t180.5 42.5q151 0 235 -84t84 -234v-602h-125v547q0 133 -55.5 197.5t-171.5 64.5q-141 0 -207.5 -83.5t-66.5 -262.5v-463h-123zM826 1294q-25 -90 -75.5 -137t-123.5 -47q-16 0 -32 2.5t-33 7.5l-80 27q-12 4 -26.5 6t-31.5 2
q-31 0 -53.5 -15t-38.5 -46h-88q22 87 72.5 132.5t126.5 45.5q17 0 32 -2t27 -6l78 -27q17 -5 32 -7.5t29 -2.5q36 0 60.5 17t36.5 50h88z" />
    <glyph glyph-name="oacute" unicode="&#xf3;" horiz-adv-x="1143" 
d="M571 76q146 0 247.5 105.5t101.5 258.5q0 155 -101 260t-248 105q-146 0 -247 -105t-101 -260q0 -153 101 -258.5t247 -105.5zM567 -39q-95 0 -182 37.5t-158 107.5q-67 66 -102 152t-35 184q0 97 36 184t103 154q68 68 155 104t183 36q98 0 186.5 -36t157.5 -104
t105.5 -155t36.5 -183t-36 -182.5t-104 -153.5q-70 -70 -159.5 -107.5t-186.5 -37.5zM438 1030l213 350h164l-283 -350h-94z" />
    <glyph glyph-name="ograve" unicode="&#xf2;" horiz-adv-x="1143" 
d="M571 76q146 0 247.5 105.5t101.5 258.5q0 155 -101 260t-248 105q-146 0 -247 -105t-101 -260q0 -153 101 -258.5t247 -105.5zM567 -39q-95 0 -182 37.5t-158 107.5q-67 66 -102 152t-35 184q0 97 36 184t103 154q68 68 155 104t183 36q98 0 186.5 -36t157.5 -104
t105.5 -155t36.5 -183t-36 -182.5t-104 -153.5q-70 -70 -159.5 -107.5t-186.5 -37.5zM704 1030h-94l-283 350h164z" />
    <glyph glyph-name="ocircumflex" unicode="&#xf4;" horiz-adv-x="1143" 
d="M571 76q146 0 247.5 105.5t101.5 258.5q0 155 -101 260t-248 105q-146 0 -247 -105t-101 -260q0 -153 101 -258.5t247 -105.5zM567 -39q-95 0 -182 37.5t-158 107.5q-67 66 -102 152t-35 184q0 97 36 184t103 154q68 68 155 104t183 36q98 0 186.5 -36t157.5 -104
t105.5 -155t36.5 -183t-36 -182.5t-104 -153.5q-70 -70 -159.5 -107.5t-186.5 -37.5zM284 1030l213 350h146l213 -350h-92l-193 250l-195 -250h-92z" />
    <glyph glyph-name="odieresis" unicode="&#xf6;" horiz-adv-x="1143" 
d="M571 76q146 0 247.5 105.5t101.5 258.5q0 155 -101 260t-248 105q-146 0 -247 -105t-101 -260q0 -153 101 -258.5t247 -105.5zM567 -39q-95 0 -182 37.5t-158 107.5q-67 66 -102 152t-35 184q0 97 36 184t103 154q68 68 155 104t183 36q98 0 186.5 -36t157.5 -104
t105.5 -155t36.5 -183t-36 -182.5t-104 -153.5q-70 -70 -159.5 -107.5t-186.5 -37.5zM649 1188q0 40 29 69t69 29t68 -29t28 -69q0 -42 -27 -69t-69 -27t-70 27t-28 69zM299 1188q0 40 28 69t68 29t69 -29t29 -69q0 -41 -28 -68.5t-70 -27.5t-69 26.5t-27 69.5z" />
    <glyph glyph-name="otilde" unicode="&#xf5;" horiz-adv-x="1143" 
d="M571 76q146 0 247.5 105.5t101.5 258.5q0 155 -101 260t-248 105q-146 0 -247 -105t-101 -260q0 -153 101 -258.5t247 -105.5zM567 -39q-95 0 -182 37.5t-158 107.5q-67 66 -102 152t-35 184q0 97 36 184t103 154q68 68 155 104t183 36q98 0 186.5 -36t157.5 -104
t105.5 -155t36.5 -183t-36 -182.5t-104 -153.5q-70 -70 -159.5 -107.5t-186.5 -37.5zM862 1294q-25 -90 -75.5 -137t-123.5 -47q-16 0 -32 2.5t-33 7.5l-80 27q-12 4 -26.5 6t-31.5 2q-31 0 -53.5 -15t-38.5 -46h-88q22 87 72.5 132.5t126.5 45.5q17 0 32 -2t27 -6l78 -27
q17 -5 32 -7.5t29 -2.5q36 0 60.5 17t36.5 50h88z" />
    <glyph glyph-name="uacute" unicode="&#xfa;" horiz-adv-x="1079" 
d="M287 887v-443q0 -202 57.5 -285t194.5 -83q136 0 195 84t59 284v443h122v-506q0 -207 -95 -313.5t-279 -106.5q-185 0 -281 106.5t-96 313.5v506h123zM408 1030l213 350h164l-283 -350h-94z" />
    <glyph glyph-name="ugrave" unicode="&#xf9;" horiz-adv-x="1079" 
d="M287 887v-443q0 -202 57.5 -285t194.5 -83q136 0 195 84t59 284v443h122v-506q0 -207 -95 -313.5t-279 -106.5q-185 0 -281 106.5t-96 313.5v506h123zM674 1030h-94l-283 350h164z" />
    <glyph glyph-name="ucircumflex" unicode="&#xfb;" horiz-adv-x="1079" 
d="M287 887v-443q0 -202 57.5 -285t194.5 -83q136 0 195 84t59 284v443h122v-506q0 -207 -95 -313.5t-279 -106.5q-185 0 -281 106.5t-96 313.5v506h123zM254 1030l213 350h146l213 -350h-92l-193 250l-195 -250h-92z" />
    <glyph glyph-name="udieresis" unicode="&#xfc;" horiz-adv-x="1079" 
d="M287 887v-443q0 -202 57.5 -285t194.5 -83q136 0 195 84t59 284v443h122v-506q0 -207 -95 -313.5t-279 -106.5q-185 0 -281 106.5t-96 313.5v506h123zM619 1188q0 40 29 69t69 29t68 -29t28 -69q0 -42 -27 -69t-69 -27t-70 27t-28 69zM269 1188q0 40 28 69t68 29t69 -29
t29 -69q0 -41 -28 -68.5t-70 -27.5t-69 26.5t-27 69.5z" />
    <glyph glyph-name="dagger" unicode="&#x2020;" horiz-adv-x="1042" 
d="M461 -446v1220h-361v115h361v575h123v-575h360v-115h-360v-1220h-123z" />
    <glyph glyph-name="degree" unicode="&#xb0;" horiz-adv-x="674" 
d="M551 1176q0 87 -63 150t-150 63q-89 0 -151 -62t-62 -151t62.5 -151t150.5 -62t150.5 62t62.5 151zM338 1450q112 0 192 -80.5t80 -193.5q0 -114 -80 -193.5t-194 -79.5q-115 0 -194 79t-79 194q0 114 80.5 194t194.5 80z" />
    <glyph glyph-name="cent" unicode="&#xa2;" horiz-adv-x="1180" 
d="M567 1110q-136 -14 -224.5 -116.5t-88.5 -245.5q0 -154 83.5 -253.5t229.5 -119.5v735zM930 1028q-62 40 -132.5 61.5t-149.5 24.5l-1 -745q98 11 167 34.5t116 61.5v-131q-57 -35 -127 -52.5t-155 -19.5l-1 -205h-80v207q-197 11 -320.5 142.5t-123.5 328.5
q0 200 119.5 330.5t324.5 155.5v161h80v-159q68 0 138.5 -15t144.5 -45v-135z" />
    <glyph glyph-name="sterling" unicode="&#xa3;" horiz-adv-x="1180" 
d="M100 20q36 68 84.5 110t110.5 60q41 57 60.5 107t19.5 98q0 44 -11 93.5t-34 111.5h-230v90h185q-51 106 -77 199.5t-26 171.5q0 184 125 301t324 117q202 0 318.5 -112.5t123.5 -315.5l-127 -22q-3 157 -85 245t-226 88q-146 0 -232 -82.5t-86 -220.5q0 -66 25 -157
t76 -212h389v-90h-358q20 -55 29 -98t9 -78q0 -71 -25.5 -128.5t-75.5 -100.5q91 -2 226 -58.5t191 -56.5q61 0 112.5 34.5t98.5 108.5l88 -59q-55 -103 -126 -152t-165 -49q-84 0 -220 60.5t-196 60.5q-59 0 -110.5 -31t-98.5 -94z" />
    <glyph glyph-name="section" unicode="&#xa7;" horiz-adv-x="1042" 
d="M526 254q114 0 194.5 80.5t80.5 195.5q0 122 -76 198.5t-199 76.5q-115 0 -195.5 -80t-80.5 -195q0 -126 75 -201t201 -75zM176 -92l127 -1q3 -116 59.5 -174.5t167.5 -58.5q104 0 163 56.5t59 156.5q0 81 -45.5 129.5t-212.5 110.5q-124 45 -177.5 71.5t-83.5 53.5
q-60 54 -89 122.5t-29 155.5q0 123 72 216t198 133q-112 46 -165.5 119t-53.5 178q0 147 100.5 235t270.5 88q168 0 258 -86t90 -248v-20h-135q-5 122 -60.5 184t-161.5 62q-97 0 -159 -58t-62 -149q0 -89 51.5 -144t208.5 -112q205 -74 286 -163t81 -230q0 -135 -67 -225.5
t-197 -131.5q108 -47 162.5 -123.5t54.5 -181.5q0 -142 -99.5 -235t-255.5 -93q-164 0 -260 92t-96 248v23z" />
    <glyph glyph-name="bullet" unicode="&#x2022;" horiz-adv-x="1208" 
d="M307 762q0 123 87 209t210 86q122 0 208.5 -86.5t86.5 -208.5t-87.5 -209.5t-209.5 -87.5q-123 0 -209 87t-86 210z" />
    <glyph glyph-name="paragraph" unicode="&#xb6;" 
d="M932 1415h-129v-1415h-70v1415h-192v-1415h-70v782q-175 8 -278 102.5t-103 245.5q0 157 108.5 253t286.5 96h447v-64z" />
    <glyph glyph-name="germandbls" unicode="&#xdf;" horiz-adv-x="1059" 
d="M154 0v782h-121v105h121v297q0 186 92.5 286.5t263.5 100.5q166 0 262 -104.5t96 -284.5q0 -116 -54.5 -196t-162.5 -122q151 -17 230.5 -127.5t79.5 -304.5q0 -218 -115.5 -347.5t-310.5 -129.5q-29 0 -59 6t-64 19v131q31 -16 63.5 -23.5t67.5 -7.5q138 0 213 92.5
t75 261.5q0 179 -83 273t-242 94q-12 0 -27 -1l-45 -3v124q8 0 18.5 -0.5t30.5 -0.5q132 0 195 66.5t63 203.5q0 131 -61.5 199.5t-179.5 68.5q-69 0 -120.5 -31.5t-76.5 -89.5q-14 -32 -20.5 -79t-6.5 -148v-84v-1026h-122z" />
    <glyph glyph-name="registered" unicode="&#xae;" horiz-adv-x="1706" 
d="M852 1077h-168v-313h168q145 0 199.5 36t54.5 126q0 78 -61.5 114.5t-192.5 36.5zM874 1155q180 0 264.5 -56.5t84.5 -176.5q0 -89 -55.5 -149t-147.5 -71l190 -393h-131l-182 377h-213v-377h-115v846h305zM1511 721q0 133 -49 252.5t-141 212.5q-95 95 -215 144.5
t-254 49.5q-133 0 -251.5 -49t-209.5 -141q-95 -97 -145.5 -218t-50.5 -251t50 -249.5t144 -213.5t213.5 -144.5t249.5 -50.5t251.5 51t217.5 146q93 92 141.5 209.5t48.5 251.5zM852 1452q149 0 282.5 -55t237.5 -160q103 -102 157 -235t54 -281q0 -150 -53.5 -280
t-157.5 -232q-107 -106 -241.5 -162.5t-278.5 -56.5q-145 0 -277 55.5t-237 161.5q-105 104 -160 236t-55 278q0 145 56 279t161 241q101 103 232 157t280 54z" />
    <glyph glyph-name="copyright" unicode="&#xa9;" horiz-adv-x="1706" 
d="M1081 918q-20 81 -79.5 126.5t-147.5 45.5q-126 0 -196 -97.5t-70 -273.5q0 -169 71.5 -267t194.5 -98q91 0 156 52.5t84 140.5h102q-11 -123 -108 -201t-240 -78q-173 0 -275 123.5t-102 333.5q0 205 107 328t282 123q132 0 222.5 -72t103.5 -186h-105zM1511 721
q0 133 -49 252.5t-141 212.5q-95 95 -215 144.5t-254 49.5q-133 0 -251.5 -49t-209.5 -141q-95 -97 -145.5 -218t-50.5 -251t50 -249.5t144 -213.5t213.5 -144.5t249.5 -50.5t251.5 51t217.5 146q93 92 141.5 209.5t48.5 251.5zM852 1452q149 0 282.5 -55t237.5 -160
q103 -102 157 -235t54 -281q0 -150 -53.5 -280t-157.5 -232q-107 -106 -241.5 -162.5t-278.5 -56.5q-145 0 -277 55.5t-237 161.5q-105 104 -160 236t-55 278q0 145 56 279t161 241q101 103 232 157t280 54z" />
    <glyph glyph-name="trademark" unicode="&#x2122;" horiz-adv-x="1706" 
d="M926 1454l174 -440l162 440h102v-530h-59v479l-181 -479h-49l-190 479v-479h-60v530h101zM694 1454v-51h-174v-479h-67v479h-179v51h420z" />
    <glyph glyph-name="acute" unicode="&#xb4;" 
d="M379 1030l213 350h164l-283 -350h-94z" />
    <glyph glyph-name="dieresis" unicode="&#xa8;" 
d="M590 1188q0 40 29 69t69 29t68 -29t28 -69q0 -42 -27 -69t-69 -27t-70 27t-28 69zM240 1188q0 40 28 69t68 29t69 -29t29 -69q0 -41 -28 -68.5t-70 -27.5t-69 26.5t-27 69.5z" />
    <glyph glyph-name="notequal" unicode="&#x2260;" horiz-adv-x="1706" 
d="M1280 1108l-217 -277h389v-79h-440l-219 -283h659v-82h-711l-254 -324l-61 48l215 276h-387v82h436l221 283h-657v79h709l254 326z" />
    <glyph glyph-name="AE" unicode="&#xc6;" horiz-adv-x="1688" 
d="M348 610h457l-217 662zM135 0h-127l529 1464h618l41 -125h-506l158 -458h526l43 -125h-526l215 -631h532l41 -125h-665l-170 496h-533z" />
    <glyph glyph-name="Oslash" unicode="&#xd8;" horiz-adv-x="1792" 
d="M489 233q97 -76 196.5 -112.5t209.5 -36.5q128 0 246.5 49.5t208.5 140.5q92 92 140 209t48 248q0 117 -37.5 220.5t-116.5 201.5zM1319 1221q-91 79 -197 119t-227 40q-130 0 -246.5 -48.5t-206.5 -139.5q-91 -93 -138.5 -210.5t-47.5 -250.5q0 -123 40 -228t126 -206z
M219 -45l-65 70l176 180q-106 102 -161.5 237t-55.5 289q0 156 58.5 295t170.5 248q111 109 253 167t300 58q152 0 281.5 -47t232.5 -139l184 192l70 -67l-186 -191q97 -105 149.5 -239t52.5 -277q0 -156 -58.5 -295t-170.5 -248t-255 -165t-310 -56q-140 0 -259 42
t-229 130z" />
    <glyph glyph-name="infinity" unicode="&#x221e;" horiz-adv-x="1706" 
d="M889 557q54 -103 125 -154t162 -51q107 0 176 78t69 199q0 119 -63.5 196.5t-159.5 77.5q-87 0 -157.5 -77.5t-151.5 -268.5zM819 670q-52 102 -123.5 153t-163.5 51q-108 0 -176.5 -77.5t-68.5 -198.5q0 -118 63.5 -195t159.5 -77q88 0 158 76t151 268zM836 713
q66 139 146 206.5t177 67.5q130 0 219.5 -106t89.5 -265q0 -165 -80 -266.5t-210 -101.5q-94 0 -165.5 60.5t-142.5 201.5q-71 -139 -148.5 -203.5t-172.5 -64.5q-130 0 -220.5 106.5t-90.5 263.5q0 166 80 267.5t210 101.5q98 0 172.5 -64.5t135.5 -203.5z" />
    <glyph glyph-name="plusminus" unicode="&#xb1;" horiz-adv-x="1706" 
d="M1452 141v-82h-1198v82h1198zM893 1161v-354h559v-80h-559v-352h-80v352h-559v80h559v354h80z" />
    <glyph glyph-name="lessequal" unicode="&#x2264;" horiz-adv-x="1706" 
d="M1442 129v-80h-1178v80h1178zM1442 1083l-1043 -350l1043 -352v-88l-1178 405v70l1178 403v-88z" />
    <glyph glyph-name="greaterequal" unicode="&#x2265;" horiz-adv-x="1706" 
d="M1442 129v-80h-1178v80h1178zM1442 768v-70l-1178 -405v88l1043 352l-1043 350v88z" />
    <glyph glyph-name="yen" unicode="&#xa5;" horiz-adv-x="1182" 
d="M530 0v631h-497v98h456l-98 162h-358v100h293l-283 461h147l402 -676l412 676h135l-281 -461h289v-100h-352l-99 -162h451v-98h-490v-631h-127z" />
    <glyph glyph-name="mu" unicode="&#xb5;" horiz-adv-x="1094" 
d="M326 1063l-123 -590q-9 -43 -13 -77t-4 -64q0 -126 60 -192t174 -66q127 0 219.5 109t136.5 313l125 567h121l-166 -786q-2 -9 -5 -24q-20 -92 -20 -112q0 -31 17.5 -47t50.5 -16q9 0 18.5 0.5t20.5 1.5l-18 -96q-3 -1 -8 -2q-49 -11 -68 -11q-68 0 -100.5 31.5
t-32.5 95.5q0 7 0.5 16t3.5 29q-43 -83 -123.5 -127.5t-188.5 -44.5q-97 0 -169.5 45.5t-104.5 126.5l-119 -567h-121l316 1487h121z" />
    <glyph glyph-name="partialdiff" unicode="&#x2202;" 
d="M750 578q11 69 16.5 144.5t5.5 160.5q0 179 -38 266.5t-116 87.5q-45 0 -99.5 -73.5t-108.5 -73.5q-29 0 -48.5 18.5t-19.5 46.5q0 59 61 102t148 43q160 0 254 -147t94 -401q0 -335 -131.5 -557t-323.5 -222q-139 0 -224 105t-85 280q0 173 107 296.5t258 123.5
q97 0 158.5 -49t91.5 -151zM713 459q0 125 -47 190.5t-138 65.5q-117 0 -190.5 -125t-73.5 -330q0 -117 47.5 -179.5t137.5 -62.5q114 0 189 125.5t75 315.5z" />
    <glyph glyph-name="summation" unicode="&#x2211;" horiz-adv-x="1290" 
d="M45 1473h1208v-123h-1038l721 -787l-760 -835h1077v-121h-1243v127l752 829l-717 787v123z" />
    <glyph glyph-name="product" unicode="&#x220f;" horiz-adv-x="1491" 
d="M164 1473h1163v-1866h-135v1743h-893v-1743h-135v1866z" />
    <glyph glyph-name="pi" unicode="&#x3c0;" horiz-adv-x="1155" 
d="M1102 958h-182l-119 -565q-14 -62 -21.5 -111t-7.5 -77q0 -59 24.5 -83t84.5 -24q27 0 49.5 2.5t42.5 7.5l-25 -108q-29 -9 -52 -12.5t-44 -3.5q-92 0 -145.5 54t-53.5 148q0 47 11.5 122.5t44.5 228.5l88 421h-381l-203 -958h-121l201 958h-39q-55 0 -85.5 -32
t-41.5 -101h-121q25 135 85 186.5t206 51.5h829z" />
    <glyph glyph-name="integral" unicode="&#x222b;" horiz-adv-x="948" 
d="M401 578q0 498 86.5 733t268.5 235q65 0 106 -35t41 -90q0 -45 -27.5 -71.5t-74.5 -26.5q-77 0 -101.5 64.5t-33.5 64.5q-67 0 -93 -159t-26 -687q0 -509 -85.5 -743t-268.5 -234q-64 0 -106 34.5t-42 84.5q0 48 28.5 77.5t76.5 29.5q33 0 56 -13.5t40 -42.5
q8 -14 12.5 -44.5t24.5 -30.5q66 0 92 165t26 689z" />
    <glyph glyph-name="ordfeminine" unicode="&#xaa;" horiz-adv-x="831" 
d="M166 1147q0 -120 58.5 -185t166.5 -65q104 0 164.5 71t60.5 195q0 115 -60 180.5t-165 65.5q-104 0 -164.5 -70.5t-60.5 -191.5zM614 844v112q-34 -68 -93.5 -103.5t-139.5 -35.5q-144 0 -231 91.5t-87 242.5q0 149 86.5 242.5t223.5 93.5q85 0 146.5 -34.5t94.5 -100.5
v112h93v-620h-93z" />
    <glyph glyph-name="ordmasculine" unicode="&#xba;" horiz-adv-x="858" 
d="M428 897q110 0 186 74t76 182q0 107 -75.5 180.5t-186.5 73.5q-110 0 -185 -73.5t-75 -180.5t75.5 -181.5t184.5 -74.5zM426 817q-72 0 -137 25.5t-119 75.5q-51 47 -76.5 106.5t-25.5 128.5q0 68 26.5 129t77.5 109q50 46 115.5 71t138.5 25q75 0 140.5 -24.5
t117.5 -71.5q52 -49 79.5 -110t27.5 -128t-27 -127.5t-78 -107.5q-53 -49 -120 -75t-140 -26z" />
    <glyph glyph-name="Omega" unicode="&#x3a9;" horiz-adv-x="1585" 
d="M1452 121v-121h-573v102q218 136 328 307.5t110 376.5q0 269 -146.5 438t-377.5 169t-378 -169t-147 -438q0 -205 110 -376.5t329 -307.5v-102h-572v121h354q-183 132 -271.5 295.5t-88.5 369.5q0 317 188.5 522t475.5 205q286 0 474.5 -205t188.5 -522
q0 -206 -88.5 -369.5t-271.5 -295.5h356z" />
    <glyph glyph-name="ae" unicode="&#xe6;" horiz-adv-x="1624" 
d="M1534 438h-705q6 -171 84.5 -267.5t210.5 -96.5q103 0 177.5 52.5t121.5 158.5l117 -62q-69 -134 -170.5 -199t-243.5 -65q-123 0 -212 54t-150 167q-37 -105 -130.5 -163t-225.5 -58q-152 0 -244 79t-92 208q0 132 99.5 214.5t262.5 82.5q87 0 156 -22t120 -66
q2 12 2.5 25.5t0.5 39.5q0 149 -67.5 221t-207.5 72q-76 0 -150.5 -19t-150.5 -59l2 131q75 27 151.5 40.5t158.5 13.5q135 0 226 -49.5t116 -137.5q48 89 134 138t195 49q189 0 301.5 -125t112.5 -336v-21zM838 543h551q-8 122 -81 190t-196 68q-111 0 -186.5 -71
t-87.5 -187zM702 270q0 76 -67.5 122t-179.5 46q-117 0 -182.5 -50t-65.5 -138q0 -85 60.5 -130.5t172.5 -45.5q116 0 189 55t73 141z" />
    <glyph glyph-name="oslash" unicode="&#xf8;" horiz-adv-x="1143" 
d="M147 -41l-55 59l111 113q-59 73 -87 147t-28 154q0 208 139.5 348t347.5 140q85 0 158 -27t144 -84l110 113l62 -58l-113 -110q59 -73 88 -149.5t29 -160.5q0 -207 -141.5 -345t-352.5 -138q-82 0 -154 27.5t-141 85.5zM346 160q51 -42 104.5 -62t112.5 -20
q154 0 254.5 103.5t100.5 262.5q0 60 -17 113.5t-51 106.5zM793 723q-45 42 -97 62t-114 20q-159 0 -259 -103.5t-100 -267.5q0 -58 17 -110t53 -103z" />
    <glyph glyph-name="questiondown" unicode="&#xbf;" horiz-adv-x="1053" 
d="M639 1395q0 -43 -29.5 -73t-72.5 -30t-72 29.5t-29 73.5q0 43 29 72.5t72 29.5t72.5 -29.5t29.5 -72.5zM750 365h118v-33q0 -172 -97.5 -271.5t-264.5 -99.5q-152 0 -243 91t-91 243q0 111 48 186t196 170l74 47q198 122 198 230q0 72 -46.5 115.5t-123.5 43.5
q-89 0 -137.5 -46.5t-48.5 -131.5v-18h-111v24q0 135 80.5 207t230.5 72q125 0 203 -75t78 -193q0 -88 -46 -154.5t-171 -148.5l-72 -47q-227 -143 -227 -273q0 -97 58.5 -155t156.5 -58q114 0 176 70t62 198v7z" />
    <glyph glyph-name="exclamdown" unicode="&#xa1;" horiz-adv-x="635" 
d="M256 1157h123v-1157h-123v1157zM215 1395q0 43 29.5 72.5t72.5 29.5t73 -29.5t30 -72.5t-30 -73t-73 -30t-72.5 30t-29.5 73z" />
    <glyph glyph-name="logicalnot" unicode="&#xac;" horiz-adv-x="1706" 
d="M1452 856v-502h-78v420h-1120v82h1198z" />
    <glyph glyph-name="radical" unicode="&#x221a;" horiz-adv-x="1264" 
d="M1264 1626v-61h-129l-596 -1606h-31l-330 907l-110 -39l-15 50l230 79l278 -759l531 1429h172z" />
    <glyph glyph-name="florin" unicode="&#x192;" horiz-adv-x="1180" 
d="M659 825l-88 -800q-31 -278 -94.5 -377t-197.5 -99q-20 1 -43 4.5t-49 10.5l31 118q11 -6 25 -9t36 -3q70 0 103.5 68t63.5 348l82 739h-163l10 95h164l20 182q23 207 89.5 292t201.5 85q36 0 67 -7t60 -22l-21 -107q-33 12 -59 17.5t-47 5.5q-74 0 -108 -49t-54 -223
l-18 -174h194l-6 -95h-199z" />
    <glyph glyph-name="approxequal" unicode="&#x2248;" horiz-adv-x="1706" 
d="M1530 485q-106 -74 -202 -110.5t-185 -36.5q-106 0 -295.5 70.5t-282.5 70.5q-83 0 -171 -35.5t-216 -124.5v93q105 73 201 109t186 36q106 0 295.5 -69.5t282.5 -69.5q83 0 171 35.5t216 124.5v-93zM1530 809q-105 -73 -200.5 -109t-186.5 -36q-106 0 -295.5 69.5
t-282.5 69.5q-83 0 -171 -35.5t-216 -124.5v92q106 75 202 111.5t185 36.5q106 0 295.5 -71t282.5 -71q81 0 168.5 36t218.5 126v-94z" />
    <glyph glyph-name="Delta" unicode="&#x2206;" horiz-adv-x="1335" 
d="M1155 121l-487 1233l-490 -1233h977zM754 1473l592 -1473h-1358l594 1473h172z" />
    <glyph glyph-name="guillemotleft" unicode="&#xab;" horiz-adv-x="782" 
d="M655 49l-254 387l246 395l86 -53l-211 -344l215 -332zM297 49l-252 387l244 395l86 -53l-209 -344l213 -332z" />
    <glyph glyph-name="guillemotright" unicode="&#xbb;" horiz-adv-x="782" 
d="M127 49l-82 53l215 332l-211 344l86 53l244 -395zM485 49l-84 53l215 332l-208 344l86 53l243 -395z" />
    <glyph glyph-name="ellipsis" unicode="&#x2026;" horiz-adv-x="2048" 
d="M240 84q0 43 29.5 72.5t72.5 29.5t72.5 -29.5t29.5 -72.5t-29.5 -72.5t-72.5 -29.5t-72.5 29.5t-29.5 72.5zM922 84q0 43 29.5 72.5t72.5 29.5t72.5 -29.5t29.5 -72.5t-29.5 -72.5t-72.5 -29.5t-72.5 29.5t-29.5 72.5zM1606 84q0 43 29.5 72.5t72.5 29.5t72.5 -29.5
t29.5 -72.5t-29.5 -72.5t-72.5 -29.5t-72.5 29.5t-29.5 72.5z" />
    <glyph glyph-name="nonbreakingspace" unicode="&#xa0;" horiz-adv-x="1180" 
 />
    <glyph glyph-name="Agrave" unicode="&#xc0;" horiz-adv-x="1223" 
d="M356 610h510l-250 637zM-18 0l643 1522l616 -1522h-145l-187 496h-598l-194 -496h-135zM745 1608h-94l-283 350h164z" />
    <glyph glyph-name="Atilde" unicode="&#xc3;" horiz-adv-x="1223" 
d="M356 610h510l-250 637zM-18 0l643 1522l616 -1522h-145l-187 496h-598l-194 -496h-135zM903 1872q-25 -90 -75.5 -137t-123.5 -47q-16 0 -32 2.5t-33 7.5l-80 27q-12 4 -26.5 6t-31.5 2q-31 0 -53.5 -15t-38.5 -46h-88q22 87 72.5 132.5t126.5 45.5q17 0 32 -2t27 -6
l78 -27q17 -5 32 -7.5t29 -2.5q36 0 60.5 17t36.5 50h88z" />
    <glyph glyph-name="Otilde" unicode="&#xd5;" horiz-adv-x="1792" 
d="M895 80q130 0 246 48t209 140q91 93 139.5 211.5t48.5 249.5q0 132 -48 249.5t-140 211.5q-91 92 -207.5 140t-247.5 48q-130 0 -245 -48t-208 -140q-92 -95 -140 -211.5t-48 -249.5q0 -132 48 -249.5t140 -211.5q92 -93 206 -140.5t247 -47.5zM1679 729
q0 -155 -59 -294.5t-170 -248.5q-113 -110 -255 -167.5t-300 -57.5t-299.5 57.5t-253.5 167.5q-112 111 -170.5 249.5t-58.5 293.5q0 157 58.5 296.5t170.5 250.5q110 109 251 165t302 56q162 0 303.5 -56.5t251.5 -164.5q112 -111 170.5 -250.5t58.5 -296.5zM1188 1872
q-25 -90 -75.5 -137t-123.5 -47q-16 0 -32 2.5t-33 7.5l-80 27q-12 4 -26.5 6t-31.5 2q-31 0 -53.5 -15t-38.5 -46h-88q22 87 72.5 132.5t126.5 45.5q17 0 32 -2t27 -6l78 -27q17 -5 32 -7.5t29 -2.5q36 0 60.5 17t36.5 50h88z" />
    <glyph glyph-name="OE" unicode="&#x152;" horiz-adv-x="2320" 
d="M2181 1464v-125h-575v-458h575v-125h-575v-631h575v-125h-698v311q-97 -166 -257 -256t-360 -90q-102 0 -199 26t-180 77q-181 109 -277.5 281t-96.5 384q0 157 56 295.5t163 245.5q108 109 248.5 167t298.5 58q198 0 350 -85t254 -253v303h698zM242 731
q0 -130 46.5 -246.5t137.5 -212.5q85 -90 198 -138t238 -48q129 0 239.5 47t196.5 137q88 94 134.5 212.5t46.5 248.5q0 140 -43 255t-129 204q-89 93 -201.5 140.5t-243.5 47.5q-124 0 -236 -47.5t-200 -138.5q-91 -96 -137.5 -212.5t-46.5 -248.5z" />
    <glyph glyph-name="oe" unicode="&#x153;" horiz-adv-x="1841" 
d="M573 76q146 0 247.5 105.5t101.5 258.5q0 155 -101 260t-248 105q-146 0 -247 -105t-101 -260q0 -153 101 -258.5t247 -105.5zM1053 545h551q-8 123 -81 191.5t-196 68.5q-111 0 -188 -73t-86 -187zM1749 442h-705q0 -165 81.5 -265.5t211.5 -100.5q103 0 178.5 53
t122.5 160l117 -64q-69 -133 -169 -198.5t-234 -65.5q-136 0 -238.5 65t-138.5 173q-57 -113 -163.5 -175.5t-242.5 -62.5q-97 0 -183.5 35.5t-154.5 103.5q-68 69 -103.5 156t-35.5 186q0 96 36 183.5t103 154.5t154.5 104.5t177.5 37.5q144 0 248 -59t164 -175
q41 109 138 171.5t226 62.5q187 0 298.5 -124.5t111.5 -334.5v-21z" />
    <glyph glyph-name="endash" unicode="&#x2013;" 
d="M0 481h1024v-80h-1024v80z" />
    <glyph glyph-name="emdash" unicode="&#x2014;" horiz-adv-x="2048" 
d="M0 401v80h2048v-80h-2048z" />
    <glyph glyph-name="quotedblleft" unicode="&#x201c;" horiz-adv-x="877" 
d="M772 1466l-194 -540l-150 67l262 504zM449 1466l-195 -540l-148 67l261 504z" />
    <glyph glyph-name="quotedblright" unicode="&#x201d;" horiz-adv-x="877" 
d="M428 958l195 539l149 -65l-262 -506zM106 958l193 539l150 -65l-263 -506z" />
    <glyph glyph-name="quoteleft" unicode="&#x2018;" horiz-adv-x="590" 
d="M467 1466l-195 -540l-149 67l262 504z" />
    <glyph glyph-name="quoteright" unicode="&#x2019;" horiz-adv-x="590" 
d="M123 958l194 539l150 -65l-262 -506z" />
    <glyph glyph-name="divide" unicode="&#xf7;" horiz-adv-x="1706" 
d="M854 365q41 0 69.5 -29.5t28.5 -71.5q0 -40 -28.5 -69t-69.5 -29t-69.5 28.5t-28.5 69.5t29 71t69 30zM1452 651v-82h-1198v82h1198zM854 1055q41 0 69.5 -28.5t28.5 -70.5q0 -40 -28.5 -70t-69.5 -30t-69.5 29.5t-28.5 70.5t28.5 70t69.5 29z" />
    <glyph glyph-name="lozenge" unicode="&#x25ca;" horiz-adv-x="1012" 
d="M506 1409l-385 -817l385 -825l385 825zM506 1653l500 -1061l-500 -1069l-500 1069z" />
    <glyph glyph-name="ydieresis" unicode="&#xff;" horiz-adv-x="825" 
d="M43 887h131l254 -694l234 694h131l-459 -1333h-127l155 452zM492 1188q0 40 29 69t69 29t68 -29t28 -69q0 -42 -27 -69t-69 -27t-70 27t-28 69zM142 1188q0 40 28 69t68 29t69 -29t29 -69q0 -41 -28 -68.5t-70 -27.5t-69 26.5t-27 69.5z" />
    <glyph glyph-name="Ydieresis" unicode="&#x178;" horiz-adv-x="1118" 
d="M496 0v674l-486 790h160l393 -671l395 671h152l-481 -790v-674h-133zM637 1766q0 40 29 69t69 29t68 -29t28 -69q0 -42 -27 -69t-69 -27t-70 27t-28 69zM287 1766q0 40 28 69t68 29t69 -29t29 -69q0 -41 -28 -68.5t-70 -27.5t-69 26.5t-27 69.5z" />
    <glyph glyph-name="fraction" unicode="&#x2215;" horiz-adv-x="342" 
d="M-342 -39l917 1518h107l-915 -1518h-109z" />
    <glyph glyph-name="currency" unicode="&#xa4;" horiz-adv-x="1180" 
d="M1108 250l-4 -152q-76 -64 -172.5 -100.5t-188.5 -36.5q-225 0 -380.5 158t-194.5 430h-164l21 98h132q0 12 -0.5 26.5t-0.5 45.5q0 17 0.5 36.5t2.5 53.5h-155l21 100h147q46 260 201.5 415t369.5 155q106 0 195.5 -38.5t163.5 -115.5v-149q-83 94 -168.5 139t-179.5 45
q-174 0 -292.5 -119.5t-158.5 -331.5h651l-28 -100h-635q-3 -34 -3.5 -53.5t-0.5 -36.5q0 -31 0.5 -45.5t1.5 -26.5h588l-31 -98h-547q35 -218 153 -343.5t287 -125.5q99 0 195.5 44t173.5 126z" />
    <glyph glyph-name="guilsinglleft" unicode="&#x2039;" horiz-adv-x="422" 
d="M295 51l-252 385l244 395l86 -51l-209 -346l215 -332z" />
    <glyph glyph-name="guilsinglright" unicode="&#x203a;" horiz-adv-x="422" 
d="M125 51l-82 51l215 332l-211 346l88 51l244 -395z" />
    <glyph glyph-name="fi" unicode="&#xf001;" horiz-adv-x="967" 
d="M637 1233q0 39 27.5 66.5t66.5 27.5t66.5 -27.5t27.5 -66.5q0 -41 -26.5 -67.5t-67.5 -26.5q-40 0 -67 27t-27 67zM668 0v887h127v-887h-127zM193 0v782h-166v105h166v256q0 267 50 346.5t183 79.5q33 0 63 -5.5t56 -15.5l-23 -108q-24 12 -46.5 18t-41.5 6
q-65 0 -92 -51.5t-27 -189.5v-336h195v-105h-195v-782h-122z" />
    <glyph glyph-name="fl" unicode="&#xf002;" horiz-adv-x="977" 
d="M678 0v1550h125v-1550h-125zM193 0v782h-166v105h166v256q0 267 50 346.5t183 79.5q33 0 63 -5.5t56 -15.5l-23 -108q-24 12 -46.5 18t-41.5 6q-65 0 -92 -51.5t-27 -189.5v-336h195v-105h-195v-782h-122z" />
    <glyph glyph-name="daggerdbl" unicode="&#x2021;" horiz-adv-x="1042" 
d="M459 -446v485h-359v113h359v720h-359v113h359v479h123v-479h362v-113h-362v-720h362v-113h-362v-485h-123z" />
    <glyph glyph-name="periodcentered" unicode="&#xb7;" horiz-adv-x="590" 
d="M193 719q0 43 29.5 72.5t72.5 29.5t72.5 -29.5t29.5 -72.5t-29.5 -73t-72.5 -30t-72.5 30t-29.5 73z" />
    <glyph glyph-name="quotesinglbase" unicode="&#x201a;" horiz-adv-x="590" 
d="M324 254l145 -61l-264 -515l-84 39z" />
    <glyph glyph-name="quotedblbase" unicode="&#x201e;" horiz-adv-x="877" 
d="M428 -287l195 541l149 -68l-262 -505zM106 -287l193 541l150 -68l-263 -505z" />
    <glyph glyph-name="perthousand" unicode="&#x2030;" horiz-adv-x="2204" 
d="M1673 336q0 -137 45.5 -210t130.5 -73q84 0 129 73t45 210q0 139 -43.5 209.5t-130.5 70.5q-84 0 -130 -72.5t-46 -207.5zM2142 334q0 -177 -77 -275t-216 -98t-217 98t-78 275t78 276t217 99t216 -99t77 -276zM965 336q0 -138 44.5 -210.5t129.5 -72.5q84 0 130 73.5
t46 209.5q0 138 -45 209t-131 71q-85 0 -129.5 -72t-44.5 -208zM1434 334q0 -177 -78 -275t-217 -98t-216 98t-77 275t77 276t216 99t217 -99t78 -276zM180 1106q0 -138 44.5 -210.5t129.5 -72.5t130.5 73.5t45.5 209.5q0 138 -44.5 209t-131.5 71q-84 0 -129 -72t-45 -208z
M649 1104q0 -177 -78 -276t-217 -99q-138 0 -215.5 98.5t-77.5 276.5q0 177 77.5 276t215.5 99q139 0 217 -99t78 -276zM270 -39l840 1518h109l-842 -1518h-107z" />
    <glyph glyph-name="Acircumflex" unicode="&#xc2;" horiz-adv-x="1223" 
d="M356 610h510l-250 637zM-18 0l643 1522l616 -1522h-145l-187 496h-598l-194 -496h-135zM325 1608l213 350h146l213 -350h-92l-193 250l-195 -250h-92z" />
    <glyph glyph-name="Ecircumflex" unicode="&#xca;" horiz-adv-x="1051" 
d="M182 0v1464h725v-125h-592v-458h592v-125h-592v-631h592v-125h-725zM254 1608l213 350h146l213 -350h-92l-193 250l-195 -250h-92z" />
    <glyph glyph-name="Aacute" unicode="&#xc1;" horiz-adv-x="1223" 
d="M356 610h510l-250 637zM-18 0l643 1522l616 -1522h-145l-187 496h-598l-194 -496h-135zM479 1608l213 350h164l-283 -350h-94z" />
    <glyph glyph-name="Edieresis" unicode="&#xcb;" horiz-adv-x="1051" 
d="M182 0v1464h725v-125h-592v-458h592v-125h-592v-631h592v-125h-725zM619 1766q0 40 29 69t69 29t68 -29t28 -69q0 -42 -27 -69t-69 -27t-70 27t-28 69zM269 1766q0 40 28 69t68 29t69 -29t29 -69q0 -41 -28 -68.5t-70 -27.5t-69 26.5t-27 69.5z" />
    <glyph glyph-name="Egrave" unicode="&#xc8;" horiz-adv-x="1051" 
d="M182 0v1464h725v-125h-592v-458h592v-125h-592v-631h592v-125h-725zM674 1608h-94l-283 350h164z" />
    <glyph glyph-name="Iacute" unicode="&#xcd;" horiz-adv-x="498" 
d="M182 0v1464h133v-1464h-133zM117 1608l213 350h164l-283 -350h-94z" />
    <glyph glyph-name="Icircumflex" unicode="&#xce;" horiz-adv-x="498" 
d="M182 0v1464h133v-1464h-133zM-37 1608l213 350h146l213 -350h-92l-193 250l-195 -250h-92z" />
    <glyph glyph-name="Idieresis" unicode="&#xcf;" horiz-adv-x="498" 
d="M182 0v1464h133v-1464h-133zM328 1766q0 40 29 69t69 29t68 -29t28 -69q0 -42 -27 -69t-69 -27t-70 27t-28 69zM-22 1766q0 40 28 69t68 29t69 -29t29 -69q0 -41 -28 -68.5t-70 -27.5t-69 26.5t-27 69.5z" />
    <glyph glyph-name="Igrave" unicode="&#xcc;" horiz-adv-x="498" 
d="M182 0v1464h133v-1464h-133zM383 1608h-94l-283 350h164z" />
    <glyph glyph-name="Oacute" unicode="&#xd3;" horiz-adv-x="1792" 
d="M895 80q130 0 246 48t209 140q91 93 139.5 211.5t48.5 249.5q0 132 -48 249.5t-140 211.5q-91 92 -207.5 140t-247.5 48q-130 0 -245 -48t-208 -140q-92 -95 -140 -211.5t-48 -249.5q0 -132 48 -249.5t140 -211.5q92 -93 206 -140.5t247 -47.5zM1679 729
q0 -155 -59 -294.5t-170 -248.5q-113 -110 -255 -167.5t-300 -57.5t-299.5 57.5t-253.5 167.5q-112 111 -170.5 249.5t-58.5 293.5q0 157 58.5 296.5t170.5 250.5q110 109 251 165t302 56q162 0 303.5 -56.5t251.5 -164.5q112 -111 170.5 -250.5t58.5 -296.5zM764 1608
l213 350h164l-283 -350h-94z" />
    <glyph glyph-name="Ocircumflex" unicode="&#xd4;" horiz-adv-x="1792" 
d="M895 80q130 0 246 48t209 140q91 93 139.5 211.5t48.5 249.5q0 132 -48 249.5t-140 211.5q-91 92 -207.5 140t-247.5 48q-130 0 -245 -48t-208 -140q-92 -95 -140 -211.5t-48 -249.5q0 -132 48 -249.5t140 -211.5q92 -93 206 -140.5t247 -47.5zM1679 729
q0 -155 -59 -294.5t-170 -248.5q-113 -110 -255 -167.5t-300 -57.5t-299.5 57.5t-253.5 167.5q-112 111 -170.5 249.5t-58.5 293.5q0 157 58.5 296.5t170.5 250.5q110 109 251 165t302 56q162 0 303.5 -56.5t251.5 -164.5q112 -111 170.5 -250.5t58.5 -296.5zM610 1608
l213 350h146l213 -350h-92l-193 250l-195 -250h-92z" />
    <glyph glyph-name="apple" unicode="&#xf000;" horiz-adv-x="1618" 
d="M836 1216q-1 6 -1.5 14t-0.5 23q0 124 95 229.5t236 131.5q1 -10 1.5 -23t0.5 -39q0 -131 -103.5 -234.5t-203.5 -103.5h-8q-3 0 -7.5 1t-8.5 1zM1505 403q-114 -247 -205 -342.5t-204 -95.5q-50 0 -131.5 33t-122.5 33q-45 0 -131 -33t-127 -33q-64 0 -128.5 44
t-129.5 132q-102 140 -157.5 295.5t-55.5 300.5q0 219 125 356.5t323 137.5q68 0 155 -34t124 -34q34 0 121.5 35t152.5 35q110 0 198 -40t161 -124q-102 -65 -151.5 -145.5t-49.5 -182.5q0 -113 60 -200t173 -138z" />
    <glyph glyph-name="Ograve" unicode="&#xd2;" horiz-adv-x="1792" 
d="M895 80q130 0 246 48t209 140q91 93 139.5 211.5t48.5 249.5q0 132 -48 249.5t-140 211.5q-91 92 -207.5 140t-247.5 48q-130 0 -245 -48t-208 -140q-92 -95 -140 -211.5t-48 -249.5q0 -132 48 -249.5t140 -211.5q92 -93 206 -140.5t247 -47.5zM1679 729
q0 -155 -59 -294.5t-170 -248.5q-113 -110 -255 -167.5t-300 -57.5t-299.5 57.5t-253.5 167.5q-112 111 -170.5 249.5t-58.5 293.5q0 157 58.5 296.5t170.5 250.5q110 109 251 165t302 56q162 0 303.5 -56.5t251.5 -164.5q112 -111 170.5 -250.5t58.5 -296.5zM1030 1608h-94
l-283 350h164z" />
    <glyph glyph-name="Uacute" unicode="&#xda;" horiz-adv-x="1417" 
d="M176 1464h131v-956q0 -217 99 -322.5t303 -105.5q201 0 300 105.5t99 322.5v956h133v-913q0 -297 -132 -443.5t-400 -146.5q-269 0 -401 146.5t-132 443.5v913zM576 1608l213 350h164l-283 -350h-94z" />
    <glyph glyph-name="Ucircumflex" unicode="&#xdb;" horiz-adv-x="1417" 
d="M176 1464h131v-956q0 -217 99 -322.5t303 -105.5q201 0 300 105.5t99 322.5v956h133v-913q0 -297 -132 -443.5t-400 -146.5q-269 0 -401 146.5t-132 443.5v913zM422 1608l213 350h146l213 -350h-92l-193 250l-195 -250h-92z" />
    <glyph glyph-name="Ugrave" unicode="&#xd9;" horiz-adv-x="1417" 
d="M176 1464h131v-956q0 -217 99 -322.5t303 -105.5q201 0 300 105.5t99 322.5v956h133v-913q0 -297 -132 -443.5t-400 -146.5q-269 0 -401 146.5t-132 443.5v913zM842 1608h-94l-283 350h164z" />
    <glyph glyph-name="dotlessi" unicode="&#x131;" horiz-adv-x="471" 
d="M172 0v887h127v-887h-127z" />
    <glyph glyph-name="circumflex" unicode="&#x2c6;" 
d="M225 1030l213 350h146l213 -350h-92l-193 250l-195 -250h-92z" />
    <glyph glyph-name="tilde" unicode="&#x2dc;" 
d="M803 1294q-25 -90 -75.5 -137t-123.5 -47q-16 0 -32 2.5t-33 7.5l-80 27q-12 4 -26.5 6t-31.5 2q-31 0 -53.5 -15t-38.5 -46h-88q22 87 72.5 132.5t126.5 45.5q17 0 32 -2t27 -6l78 -27q17 -5 32 -7.5t29 -2.5q36 0 60.5 17t36.5 50h88z" />
    <glyph glyph-name="macron" unicode="&#xaf;" 
d="M254 1118v117h516v-117h-516z" />
    <glyph glyph-name="breve" unicode="&#x2d8;" 
d="M238 1284h79q11 -67 58 -98t137 -31q91 0 136.5 30.5t56.5 98.5h81q-12 -124 -77.5 -182t-196.5 -58t-196.5 58t-77.5 182z" />
    <glyph glyph-name="dotaccent" unicode="&#x2d9;" 
d="M410 1188q0 42 30.5 73t71.5 31q42 0 72 -30.5t30 -73.5q0 -42 -30.5 -72.5t-71.5 -30.5t-71.5 30.5t-30.5 72.5z" />
    <glyph glyph-name="ring" unicode="&#x2da;" 
d="M371 1260q0 -61 40.5 -102.5t100.5 -41.5t101.5 42t41.5 102q0 59 -41.5 100t-101.5 41q-61 0 -101 -40.5t-40 -100.5zM264 1260q0 104 72 175.5t176 71.5t176 -71.5t72 -175.5q0 -105 -72 -176.5t-176 -71.5t-176 71.5t-72 176.5z" />
    <glyph glyph-name="cedilla" unicode="&#xb8;" 
d="M301 -379v70q98 -20 145 -26.5t80 -6.5q63 0 94 22t31 66q0 46 -35 68t-106 22q-6 0 -20 -1t-21 -1v166h61v-100h15q103 0 158 -39.5t55 -112.5q0 -82 -54 -123t-161 -41q-50 0 -109 9t-133 28z" />
    <glyph glyph-name="hungarumlaut" unicode="&#x2dd;" 
d="M580 1030l168 350h155l-239 -350h-84zM322 1030l147 350h158l-221 -350h-84z" />
    <glyph glyph-name="ogonek" unicode="&#x2db;" 
d="M573 0q-73 -65 -108 -123t-35 -113q0 -46 23 -66t77 -20h84v-112h-79q-114 0 -168 40t-54 124q0 65 41 125t148 145h71z" />
    <glyph glyph-name="caron" unicode="&#x2c7;" 
d="M797 1380l-213 -350h-146l-213 350h92l195 -250l193 250h92z" />
    <glyph glyph-name="Lslash" unicode="&#x141;" horiz-adv-x="856" 
d="M193 0v672l-195 -135l-66 79l261 185v663h133v-592l237 166l64 -86l-301 -209v-618h501v-125h-634z" />
    <glyph glyph-name="lslash" unicode="&#x142;" horiz-adv-x="500" 
d="M313 831l152 107l55 -82l-207 -147v-709h-127v635l-149 -109l-57 82l206 148v794h127v-719z" />
    <glyph glyph-name="Scaron" unicode="&#x160;" horiz-adv-x="1020" 
d="M70 246l114 61q32 -108 110.5 -167.5t188.5 -59.5q139 0 217 82t78 227q0 106 -52.5 176t-225.5 162q-221 117 -294 206t-73 214q0 156 105.5 254t273.5 98q110 0 191.5 -46.5t132.5 -139.5l-103 -62q-32 63 -90.5 96t-138.5 33q-108 0 -172 -63.5t-64 -171.5
q0 -154 254 -287l70 -37q187 -103 250 -194.5t63 -237.5q0 -197 -115 -312.5t-313 -115.5q-144 0 -246.5 71.5t-160.5 213.5zM795 1958l-213 -350h-146l-213 350h92l195 -250l193 250h92z" />
    <glyph glyph-name="scaron" unicode="&#x161;" horiz-adv-x="782" 
d="M63 158l117 67q29 -74 84 -111.5t135 -37.5q78 0 124 39.5t46 105.5q0 102 -181 173q-19 7 -30 12q-140 55 -196 113.5t-56 144.5q0 113 80 185.5t207 72.5q108 0 184 -47t111 -134l-113 -63q-21 63 -70 96t-120 33q-64 0 -105.5 -37.5t-41.5 -93.5q0 -55 41 -91t170 -79
q146 -51 196.5 -111t50.5 -166q0 -122 -87 -195t-234 -73q-113 0 -194.5 51.5t-117.5 145.5zM676 1380l-213 -350h-146l-213 350h92l195 -250l193 250h92z" />
    <glyph glyph-name="Zcaron" unicode="&#x17d;" horiz-adv-x="1147" 
d="M25 0l870 1343h-743v121h970l-866 -1341h778v-123h-1009zM858 1958l-213 -350h-146l-213 350h92l195 -250l193 250h92z" />
    <glyph glyph-name="zcaron" unicode="&#x17e;" horiz-adv-x="780" 
d="M23 0l495 776h-461v111h674l-491 -776h505v-111h-722zM676 1380l-213 -350h-146l-213 350h92l195 -250l193 250h92z" />
    <glyph glyph-name="brokenbar" unicode="&#xa6;" 
d="M557 408v-758h-90v758h90zM557 1432v-758h-90v758h90z" />
    <glyph glyph-name="Eth" unicode="&#xd0;" horiz-adv-x="1436" 
d="M326 115h184q228 0 323.5 25.5t161.5 86.5q92 86 138.5 213t46.5 293q0 169 -47.5 297t-139.5 209q-70 63 -171.5 89t-354.5 26h-25h-116v-490h426v-102h-426v-647zM193 0v762h-193v102h193v600h227q308 0 435.5 -30t217.5 -103q123 -99 186.5 -252t63.5 -348t-64 -347
t-188 -251q-92 -72 -214.5 -102.5t-412.5 -30.5h-24h-227z" />
    <glyph glyph-name="eth" unicode="&#xf0;" horiz-adv-x="1139" 
d="M567 76q145 0 246.5 102.5t101.5 249.5q0 148 -101 250t-247 102t-247 -102t-101 -250q0 -147 101 -249.5t247 -102.5zM893 741q-35 131 -118 257t-206 235l-313 -146l-47 82l276 131q-45 37 -104 75.5t-139 82.5l59 90q102 -59 175.5 -108t121.5 -88l342 159l51 -84
l-307 -147q184 -184 276.5 -380.5t92.5 -403.5q0 -244 -132.5 -389.5t-353.5 -145.5q-94 0 -184 36.5t-160 102.5q-68 65 -103.5 148t-35.5 176t36 177.5t103 148.5q68 65 154 101t172 36q91 0 176 -36t168 -110z" />
    <glyph glyph-name="Yacute" unicode="&#xdd;" horiz-adv-x="1118" 
d="M496 0v674l-486 790h160l393 -671l395 671h152l-481 -790v-674h-133zM426 1608l213 350h164l-283 -350h-94z" />
    <glyph glyph-name="yacute" unicode="&#xfd;" horiz-adv-x="825" 
d="M43 887h131l254 -694l234 694h131l-459 -1333h-127l155 452zM281 1030l213 350h164l-283 -350h-94z" />
    <glyph glyph-name="Thorn" unicode="&#xde;" 
d="M315 473h91q242 0 325.5 61.5t83.5 215.5q0 66 -19 121.5t-57 97.5q-39 43 -104 60.5t-229 17.5h-91v-574zM182 0v1464h133v-299h111q176 0 252 -17t133 -58q69 -51 107 -137t38 -191q0 -210 -117.5 -308t-369.5 -98h-154v-356h-133z" />
    <glyph glyph-name="thorn" unicode="&#xfe;" horiz-adv-x="1108" 
d="M883 438q0 172 -78.5 270.5t-216.5 98.5q-142 0 -222.5 -95.5t-80.5 -262.5q0 -170 86.5 -271.5t228.5 -101.5q134 0 208.5 95.5t74.5 266.5zM283 164v-610h-119v1996h119v-829q41 93 125 146t192 53q187 0 301.5 -131.5t114.5 -348.5q0 -219 -111.5 -349t-298.5 -130
q-107 0 -189 51.5t-134 151.5z" />
    <glyph glyph-name="minus" unicode="&#x2212;" horiz-adv-x="1706" 
d="M1452 651v-82h-1198v82h1198z" />
    <glyph glyph-name="multiply" unicode="&#xd7;" horiz-adv-x="1706" 
d="M854 668l487 487l58 -57l-488 -488l488 -487l-58 -57l-487 487l-487 -487l-58 57l488 487l-488 488l58 57z" />
    <glyph glyph-name="onesuperior" unicode="&#xb9;" horiz-adv-x="778" 
d="M360 575v799h-174l41 72h217v-871h-84z" />
    <glyph glyph-name="twosuperior" unicode="&#xb2;" horiz-adv-x="778" 
d="M668 645v-70h-621l209 207l60 60q262 259 262 370q0 79 -59.5 129t-153.5 50q-99 0 -155 -55.5t-56 -151.5h-86v8q0 125 81.5 197.5t223.5 72.5q135 0 217 -66.5t82 -176.5q0 -139 -221 -357l-13 -12l-213 -205h443z" />
    <glyph glyph-name="threesuperior" unicode="&#xb3;" horiz-adv-x="778" 
d="M160 797q6 -86 59 -130t152 -44q100 0 157.5 49.5t57.5 136.5q0 88 -57.5 138t-159.5 50q-16 0 -23.5 -0.5t-13.5 -0.5v75q7 0 21.5 -1t21.5 -1q92 0 144 42.5t52 117.5q0 74 -52 119t-138 45q-77 0 -125 -37.5t-57 -103.5l-95 -1q11 98 85.5 154.5t191.5 56.5
q125 0 203 -62.5t78 -164.5q0 -74 -44.5 -127.5t-123.5 -75.5q88 -28 136 -86t48 -137q0 -117 -83 -186.5t-224 -69.5q-139 0 -217.5 63t-87.5 181h94z" />
    <glyph glyph-name="onequarter" unicode="&#xbc;" horiz-adv-x="1829" 
d="M1540 272v369l-291 -369h291zM1540 0v207h-416l500 633v-568h94v-65h-94v-207h-84zM401 -39l918 1518h106l-915 -1518h-109zM344 633v745h-168l41 66h207v-811h-80z" />
    <glyph glyph-name="onehalf" unicode="&#xbd;" horiz-adv-x="1829" 
d="M1722 63v-63h-592l199 195l53 50q254 244 254 351q0 73 -57 119.5t-147 46.5q-93 0 -146 -52t-53 -143h-82v8q0 118 77.5 185t213.5 67q130 0 207 -61.5t77 -165.5q0 -131 -218 -339l-5 -5l-203 -193h422zM401 -39l918 1518h106l-915 -1518h-109zM344 633v745h-168l41 66
h207v-811h-80z" />
    <glyph glyph-name="threequarters" unicode="&#xbe;" horiz-adv-x="1829" 
d="M1540 272v369l-291 -369h291zM1540 0v207h-416l500 633v-568h94v-65h-94v-207h-84zM401 -39l918 1518h106l-915 -1518h-109zM152 840q6 -80 57.5 -121t144.5 -41q96 0 150.5 46t54.5 126q0 84 -55 130t-154 46h-35v70q8 0 22 -1t21 -1q88 0 137.5 39t49.5 108
q0 70 -49 112t-131 42q-75 0 -121 -34.5t-54 -96.5h-89q8 90 79 143t185 53q119 0 192.5 -58.5t73.5 -152.5q0 -71 -42 -120.5t-118 -69.5q84 -25 130 -79.5t46 -129.5q0 -109 -79.5 -174.5t-213.5 -65.5q-131 0 -206.5 59t-86.5 171h91z" />
    <glyph glyph-name="franc" unicode="&#x20a3;" horiz-adv-x="1671" 
d="M182 0v1464h725v-125h-592v-458h570v-125h-570v-756h-133zM1313 709q68 115 133.5 163t152.5 48q26 0 52.5 -5t52.5 -14l-40 -116q-20 6 -41.5 10t-41.5 4q-111 0 -189.5 -104t-78.5 -259v-436h-123v887h123v-178z" />
    <glyph glyph-name="Gbreve" unicode="&#x11e;" horiz-adv-x="1673" 
d="M1382 1096q-89 138 -219 209t-293 71q-272 0 -443 -184t-171 -477q0 -131 45.5 -247t132.5 -206q88 -89 197 -133.5t239 -44.5q246 0 400.5 145t158.5 379h-505v115h651v-16q0 -350 -191 -548t-526 -198q-333 0 -539 212t-206 556q0 158 52 298.5t150 244.5
q106 113 239.5 169t297.5 56q223 0 382 -80.5t245 -236.5zM564 1862h79q11 -67 58 -98t137 -31q91 0 136.5 30.5t56.5 98.5h81q-12 -124 -77.5 -182t-196.5 -58t-196.5 58t-77.5 182z" />
    <glyph glyph-name="gbreve" unicode="&#x11f;" horiz-adv-x="1108" 
d="M944 887v-733q0 -175 -9.5 -267t-31.5 -137q-46 -99 -141 -147.5t-240 -48.5q-177 0 -275.5 68.5t-119.5 207.5h154q15 -82 78.5 -124t172.5 -42q82 0 147.5 29t98.5 80q22 33 31.5 76.5t9.5 134.5v47v133q-41 -95 -125.5 -149t-193.5 -54q-187 0 -298.5 130t-111.5 349
q0 217 114 348.5t302 131.5q105 0 190.5 -54.5t122.5 -144.5v166h125zM520 807q-138 0 -217.5 -98.5t-79.5 -270.5q0 -171 75.5 -266.5t209.5 -95.5q142 0 227.5 101t85.5 272q0 168 -80 263t-221 95zM281 1284h79q11 -67 58 -98t137 -31q91 0 136.5 30.5t56.5 98.5h81
q-12 -124 -77.5 -182t-196.5 -58t-196.5 58t-77.5 182z" />
    <glyph glyph-name="Idotaccent" unicode="&#x130;" horiz-adv-x="498" 
d="M182 0v1464h133v-1464h-133zM148 1766q0 42 30.5 73t71.5 31q42 0 72 -30.5t30 -73.5q0 -42 -30.5 -72.5t-71.5 -30.5t-71.5 30.5t-30.5 72.5z" />
    <glyph glyph-name="Scedilla" unicode="&#x15e;" horiz-adv-x="1020" 
d="M70 246l114 61q32 -108 110.5 -167.5t188.5 -59.5q139 0 217 82t78 227q0 106 -52.5 176t-225.5 162q-221 117 -294 206t-73 214q0 156 105.5 254t273.5 98q110 0 191.5 -46.5t132.5 -139.5l-103 -62q-32 63 -90.5 96t-138.5 33q-108 0 -172 -63.5t-64 -171.5
q0 -154 254 -287l70 -37q187 -103 250 -194.5t63 -237.5q0 -197 -115 -312.5t-313 -115.5q-144 0 -246.5 71.5t-160.5 213.5zM299 -379v70q98 -20 145 -26.5t80 -6.5q63 0 94 22t31 66q0 46 -35 68t-106 22q-6 0 -20 -1t-21 -1v166h61v-100h15q103 0 158 -39.5t55 -112.5
q0 -82 -54 -123t-161 -41q-50 0 -109 9t-133 28z" />
    <glyph glyph-name="scedilla" unicode="&#x15f;" horiz-adv-x="782" 
d="M63 158l117 67q29 -74 84 -111.5t135 -37.5q78 0 124 39.5t46 105.5q0 102 -181 173q-19 7 -30 12q-140 55 -196 113.5t-56 144.5q0 113 80 185.5t207 72.5q108 0 184 -47t111 -134l-113 -63q-21 63 -70 96t-120 33q-64 0 -105.5 -37.5t-41.5 -93.5q0 -55 41 -91t170 -79
q146 -51 196.5 -111t50.5 -166q0 -122 -87 -195t-234 -73q-113 0 -194.5 51.5t-117.5 145.5zM180 -379v70q98 -20 145 -26.5t80 -6.5q63 0 94 22t31 66q0 46 -35 68t-106 22q-6 0 -20 -1t-21 -1v166h61v-100h15q103 0 158 -39.5t55 -112.5q0 -82 -54 -123t-161 -41
q-50 0 -109 9t-133 28z" />
    <glyph glyph-name="Cacute" unicode="&#x106;" horiz-adv-x="1464" 
d="M1358 1196q-109 94 -223 139t-240 45q-284 0 -461.5 -180t-177.5 -469q0 -145 43.5 -261t132.5 -206q88 -88 201.5 -134t243.5 -46q126 0 246 43t227 127v-156q-108 -66 -228.5 -101.5t-238.5 -35.5q-159 0 -304 57t-249 160q-107 106 -162 246t-55 307q0 164 56.5 306
t162.5 245q103 101 248.5 158t302.5 57q140 0 259.5 -38.5t217.5 -115.5zM741 1608l213 350h164l-283 -350h-94z" />
    <glyph glyph-name="cacute" unicode="&#x107;" horiz-adv-x="934" 
d="M854 725q-62 43 -132 64.5t-144 21.5q-165 0 -263 -105.5t-98 -281.5q0 -156 101.5 -257t259.5 -101q72 0 145.5 25t144.5 75v-135q-65 -37 -144 -55.5t-169 -18.5q-203 0 -333 133.5t-130 341.5q0 217 135.5 352.5t352.5 135.5q80 0 150.5 -15.5t125.5 -44.5zM428 1030
l213 350h164l-283 -350h-94z" />
    <glyph glyph-name="Ccaron" unicode="&#x10c;" horiz-adv-x="1464" 
d="M1358 1196q-109 94 -223 139t-240 45q-284 0 -461.5 -180t-177.5 -469q0 -145 43.5 -261t132.5 -206q88 -88 201.5 -134t243.5 -46q126 0 246 43t227 127v-156q-108 -66 -228.5 -101.5t-238.5 -35.5q-159 0 -304 57t-249 160q-107 106 -162 246t-55 307q0 164 56.5 306
t162.5 245q103 101 248.5 158t302.5 57q140 0 259.5 -38.5t217.5 -115.5zM1159 1958l-213 -350h-146l-213 350h92l195 -250l193 250h92z" />
    <glyph glyph-name="ccaron" unicode="&#x10d;" horiz-adv-x="934" 
d="M854 725q-62 43 -132 64.5t-144 21.5q-165 0 -263 -105.5t-98 -281.5q0 -156 101.5 -257t259.5 -101q72 0 145.5 25t144.5 75v-135q-65 -37 -144 -55.5t-169 -18.5q-203 0 -333 133.5t-130 341.5q0 217 135.5 352.5t352.5 135.5q80 0 150.5 -15.5t125.5 -44.5zM846 1380
l-213 -350h-146l-213 350h92l195 -250l193 250h92z" />
    <glyph glyph-name="dcroat" unicode="&#x111;" horiz-adv-x="1116" 
d="M225 434q0 -172 77.5 -265t221.5 -93q139 0 219 101.5t80 279.5q0 163 -79.5 256.5t-217.5 93.5t-219.5 -100t-81.5 -273zM821 0v162q-43 -98 -122 -149.5t-187 -51.5q-191 0 -307.5 131t-116.5 346q0 212 115.5 347t296.5 135q113 0 194.5 -49.5t126.5 -145.5v436h-360
v101h360v288h125v-288h170v-101h-170v-1161h-125z" />
    <glyph glyph-name="sfthyphen" unicode="&#xad;" horiz-adv-x="711" 
d="M137 506h436v-129h-436v129z" />
    <glyph glyph-name="periodcentered" unicode="&#x2219;" horiz-adv-x="590" 
d="M193 719q0 43 29.5 72.5t72.5 29.5t72.5 -29.5t29.5 -72.5t-29.5 -73t-72.5 -30t-72.5 30t-29.5 73z" />
    <glyph glyph-name="Euro" horiz-adv-x="1180" 
d="M1108 250l-4 -152q-76 -64 -172.5 -100.5t-188.5 -36.5q-225 0 -380.5 158t-194.5 430h-164l21 98h132q0 12 -0.5 26.5t-0.5 45.5q0 17 0.5 36.5t2.5 53.5h-155l21 100h147q46 260 201.5 415t369.5 155q106 0 195.5 -38.5t163.5 -115.5v-149q-83 94 -168.5 139t-179.5 45
q-174 0 -292.5 -119.5t-158.5 -331.5h651l-28 -100h-635q-3 -34 -3.5 -53.5t-0.5 -36.5q0 -31 0.5 -45.5t1.5 -26.5h588l-31 -98h-547q35 -218 153 -343.5t287 -125.5q99 0 195.5 44t173.5 126z" />
    <glyph glyph-name="Euro" unicode="&#x20ac;" horiz-adv-x="1180" 
d="M1108 250l-4 -152q-76 -64 -172.5 -100.5t-188.5 -36.5q-225 0 -380.5 158t-194.5 430h-164l21 98h132q0 12 -0.5 26.5t-0.5 45.5q0 17 0.5 36.5t2.5 53.5h-155l21 100h147q46 260 201.5 415t369.5 155q106 0 195.5 -38.5t163.5 -115.5v-149q-83 94 -168.5 139t-179.5 45
q-174 0 -292.5 -119.5t-158.5 -331.5h651l-28 -100h-635q-3 -34 -3.5 -53.5t-0.5 -36.5q0 -31 0.5 -45.5t1.5 -26.5h588l-31 -98h-547q35 -218 153 -343.5t287 -125.5q99 0 195.5 44t173.5 126z" />
    </font>
</defs>
</svg>
