<?xml version="1.0" standalone="no"?>
<!DOCTYPE svg PUBLIC "-//W3C//DTD SVG 1.1//EN" "http://www.w3.org/Graphics/SVG/1.1/DTD/svg11.dtd" >
<svg>
<metadata>
Created by FontForge 20090622 at Mon Nov 18 11:35:20 2019
 By deploy user
</metadata>
<defs>
<font id="SlimJim" horiz-adv-x="449" >
  <font-face 
    font-family="Slim Jim"
    font-weight="400"
    font-stretch="normal"
    units-per-em="1000"
    panose-1="2 0 0 0 0 0 0 0 0 0"
    ascent="800"
    descent="-200"
    x-height="494"
    cap-height="704"
    bbox="-28 -201 813 935"
    underline-thickness="50"
    underline-position="-50"
    unicode-range="U+000D-U+FB02"
  />
<missing-glyph horiz-adv-x="500" 
 />
    <glyph glyph-name=".notdef" horiz-adv-x="500" 
 />
    <glyph glyph-name="NULL" horiz-adv-x="0" 
 />
    <glyph glyph-name="NULL" horiz-adv-x="0" 
 />
    <glyph glyph-name="nonmarkingreturn" unicode="&#xd;" horiz-adv-x="198" 
 />
    <glyph glyph-name="space" unicode=" " horiz-adv-x="235" 
 />
    <glyph glyph-name="E" unicode="E" horiz-adv-x="382" 
d="M348 618q0 -4 -3 -4h-169v-182h149q4 0 4 -4v-73q0 -3 -4 -3h-149v-260h161q4 0 4 -3v-86q0 -3 -4 -3h-267q-4 0 -4 3v697q0 4 4 4h275q3 0 3 -4v-82z" />
    <glyph glyph-name="F" unicode="F" horiz-adv-x="382" 
d="M352 618q0 -4 -4 -4h-172v-198h153q3 0 3 -3v-74q0 -3 -3 -3h-153v-333q-2 -3 -4 -3h-102q-4 0 -4 3v697q0 4 4 4h278q4 0 4 -4v-82z" />
    <glyph glyph-name="G" unicode="G" horiz-adv-x="444" 
d="M396 274v-181q0 -19 -7 -36t-19 -29.5t-28.5 -20t-36.5 -7.5h1h-150h1q-20 0 -37 7.5t-30 20t-20.5 29.5t-7.5 36v518q0 19 7.5 36t20.5 29.5t30 20t37 7.5h-1h137h-1q20 0 36.5 -7.5t28.5 -20t19 -29.5t7 -36v-142q0 -4 -3 -4h-98q-3 0 -3 4v142q0 3 -3 3h-101
q-3 0 -3 -3v-516q0 -3 3 -3h114q3 0 3 3v176h-42q-3 0 -3 3v74q0 3 3 3h143q3 0 3 -3v-74z" />
    <glyph glyph-name="H" unicode="H" horiz-adv-x="467" 
d="M397 703q4 0 4 -3v-693q0 -4 -4 -4h-103q-3 0 -3 4v305q0 4 -4 4h-107q-1 0 -4 -3v-306q0 -4 -3 -4h-104q-3 0 -3 4v693q0 3 3 3h104q3 0 3 -3v-290q0 -4 4 -4h107q4 0 4 4v290q0 3 3 3h103z" />
    <glyph glyph-name="I" unicode="I" horiz-adv-x="330" 
d="M299 704q3 0 3 -4v-82q0 -4 -4 -4h-78v-522h78q4 0 4 -4v-84q0 -4 -3 -4h-269q-3 0 -3 4v84q0 4 3 4h80v522h-80q-3 0 -3 4v82q0 4 3 4h269z" />
    <glyph glyph-name="J" unicode="J" horiz-adv-x="397" 
d="M331 95q0 -20 -7.5 -37.5t-20.5 -30t-30.5 -20t-36.5 -7.5h1h-134q-39 0 -61 27.5t-22 67.5v190q0 4 3 4h98q3 0 3 -4v-190q0 -3 3 -3h91q3 0 3 3v606q0 3 3 3h103q4 0 4 -3v-606z" />
    <glyph glyph-name="K" unicode="K" horiz-adv-x="484" 
d="M331 389q7 0 21.5 -1.5t29.5 -9.5t26 -25t11 -47v-303q0 -3 -3 -3h-98q-3 0 -3 3v258q0 23 -5 41q-5 16 -15.5 29t-32.5 13h-83q-3 -2 -3 -4v-337q0 -4 -3 -4h-103q-4 0 -4 4v698q0 3 4 3h103q3 0 3 -3v-274q0 -3 4 -3h43q7 0 16 3t17 12.5t13.5 27t5.5 45.5v189q0 3 3 3
h98q3 0 3 -3v-219q0 -24 -5 -41.5t-12.5 -28.5t-15.5 -16.5t-15 -6.5z" />
    <glyph glyph-name="L" unicode="L" horiz-adv-x="339" 
d="M316 93q4 0 4 -4v-84q-2 -4 -4 -4h-237h-9q-4 0 -4 4v693q0 3 4 3h102q4 0 4 -3v-602q0 -3 3 -3h137z" />
    <glyph glyph-name="M" unicode="M" horiz-adv-x="636" 
d="M574 5q0 -3 -4 -3h-100q-4 0 -4 3v572q0 13 -8 24.5t-26 11.5h-20q-18 0 -32 -7.5t-14 -28.5v-574q0 -3 -4 -3h-86q-4 0 -4 3v574q0 21 -14 28.5t-32 7.5h-20q-18 0 -26 -11.5t-8 -24.5v-572q0 -3 -4 -3h-100q-4 0 -4 3v603q0 39 26.5 67t65.5 28h87q22 0 36 -9t22.5 -21
t12 -24.5t5.5 -20.5q2 9 6 22t12.5 24.5t22.5 20t35 8.5h87q39 0 65.5 -28t26.5 -67v-603z" />
    <glyph glyph-name="N" unicode="N" horiz-adv-x="470" 
d="M312 704q19 0 36.5 -7.5t30 -20t20 -30t7.5 -37.5v-606q0 -3 -3 -3h-104q-3 0 -3 3v608q0 3 -3 3h-116q-3 0 -3 -3v-608q0 -3 -3 -3h-104q-3 0 -3 3v606q0 20 7.5 37.5t20 30t29.5 20t37 7.5h-1h155z" />
    <glyph glyph-name="O" unicode="O" horiz-adv-x="463" 
d="M291 611q0 3 -3 3h-112q-4 0 -4 -3v-517q0 -2 4 -4h112q3 1 3 4v517zM306 704q19 0 36.5 -7.5t30.5 -20t20.5 -30t7.5 -36.5v-516q0 -20 -7.5 -37t-20.5 -29.5t-30.5 -20t-36.5 -7.5h1h-152h1q-20 0 -37 7.5t-29.5 20t-20 29.5t-7.5 37v516q0 19 7.5 36.5t20 30t29.5 20
t37 7.5h150z" />
    <glyph glyph-name="P" unicode="P" horiz-adv-x="456" 
d="M292 611q0 3 -3 3h-110q-3 0 -3 -3v-244q0 -3 3 -3h51q7 0 17.5 3t20.5 11.5t17 24t7 39.5v169zM300 704q20 0 37.5 -7.5t30.5 -20t20.5 -30t7.5 -36.5v-213q0 -24 -8 -45t-22 -36t-32 -23.5t-38 -8.5h-118q-2 0 -2 -3v-277q0 -4 -4 -4h-103q-3 0 -3 4v697q0 3 3 3h231z
" />
    <glyph glyph-name="Q" unicode="Q" horiz-adv-x="460" 
d="M284 92q4 0 4 4v514q0 4 -4 4h-108q-4 0 -4 -4v-514q0 -4 4 -4h108zM398 106q0 -38 -24 -67t-61 -37l21 -65q2 -4 -1 -4h-82q-5 0 -6 4l-26 63h-52h1q-22 0 -41.5 8.5t-33.5 23t-22.5 33.5t-8.5 41v492q0 45 30.5 75.5t75.5 30.5h124q45 0 75.5 -30.5t30.5 -75.5v-492z
" />
    <glyph glyph-name="R" unicode="R" horiz-adv-x="469" 
d="M298 611q0 3 -3 3h-115q-3 0 -4 -3v-1v-183q0 -3 4 -3h58q7 0 17.5 1.5t20 9t16 23t6.5 43.5v110zM408 467q0 -24 -10 -40t-23 -25.5t-26 -13.5t-19 -5q6 0 19 -1t26 -9t23 -24.5t10 -46.5v-298q0 -4 -3 -4h-103q-4 0 -4 4v258q-1 23 -8 41q-6 15 -18 28t-34 13h-59
q-2 -2 -3 -4v-337q0 -3 -2 -3h-105q-3 0 -3 3v698q0 3 3 3h244q19 0 36 -7t29.5 -19t20.5 -28t9 -35v-148z" />
    <glyph glyph-name="S" unicode="S" horiz-adv-x="445" 
d="M373 351q11 -7 11 -21v-237q0 -19 -7.5 -36t-20.5 -29.5t-30.5 -20t-36.5 -7.5h-133q-20 0 -37.5 7.5t-30 20t-20 29.5t-7.5 36v147h104v-145q0 -3 3 -3h103q3 0 3 3v181v4l-1.5 1.5t-2.5 1.5l-22.5 13.5l-35.5 21.5l-41.5 25l-40 24.5l-31 19t-14.5 9.5q-8 5 -12 14.5
t-4 18.5v182q0 19 7.5 36t20 29.5t29.5 20t37 7.5h119q19 0 36.5 -7.5t30 -20t20 -29.5t7.5 -36v-97h-104v97q0 3 -4 3h-86q-3 0 -3 -3v-127v-4q0 -6 2 -9q1 -4 5 -6q2 -1 3 -2l90 -55q17 -11 33.5 -20.5l29.5 -17.5l21.5 -13t9.5 -6z" />
    <glyph glyph-name="T" unicode="T" horiz-adv-x="367" 
d="M348 704q3 0 3 -4v-82q0 -4 -4 -4h-108v-612q0 -3 -4 -3h-103q-3 0 -3 3v612h-110q-3 0 -3 4v82q0 4 3 4h329z" />
    <glyph glyph-name="U" unicode="U" horiz-adv-x="451" 
d="M383 704q4 0 4 -3v-606q0 -20 -7.5 -37t-20.5 -30t-30.5 -20.5t-36.5 -7.5h-133q-20 0 -37 7.5t-30 20.5t-20.5 30t-7.5 37v606q0 3 4 3h103q3 0 3 -3v-605q0 -4 4 -4h95q4 0 4 4v605q0 3 3 3h103z" />
    <glyph glyph-name="V" unicode="V" horiz-adv-x="448" 
d="M61 701q0 3 4 3h103q3 0 3 -4v-529q0 -6 7.5 -16.5t17 -21.5t18 -19t10.5 -8q6 0 15 8.5t17.5 20t14.5 22t6 14.5v530q0 3 3 3h104q3 0 3 -4v-544q0 -2 -0.5 -6.5t-1.5 -6.5q-5 -12 -22 -36t-40 -48t-49.5 -42t-49.5 -18t-50 18.5t-50.5 42.5t-40.5 48t-21 35
q0 2 -0.5 6.5t-0.5 6.5v545z" />
    <glyph glyph-name="W" unicode="W" horiz-adv-x="631" 
d="M574 95q0 -39 -26.5 -67t-65.5 -28h-87q-21 0 -35 8.5t-22.5 20t-12.5 24.5t-6 22q-2 -8 -5.5 -20.5t-12 -24.5t-22.5 -21t-36 -9h-87q-39 0 -65.5 28t-26.5 67v604q0 3 4 3h100q4 0 4 -3v-573q0 -13 8 -24.5t26 -11.5h20q18 0 32 7.5t14 28.5v575q0 3 4 3h86q4 0 4 -3
v-575q0 -21 14 -28.5t32 -7.5h20q18 0 26 11.5t8 24.5v573q0 3 4 3h100q4 0 4 -3v-604z" />
    <glyph glyph-name="X" unicode="X" horiz-adv-x="452" 
d="M315 370q11 -6 36 -21t50 -48v-299q0 -3 -3 -3h-104q-4 0 -4 3v134v50t0.5 45.5t0.5 34v16.5q0 5 -8 15t-19 19.5t-21.5 16.5t-16.5 7t-16.5 -7t-21.5 -16.5t-19 -19.5t-8 -15v-280q0 -3 -4 -3h-103q-3 0 -3 3v299q25 33 50 48t36 21q-11 8 -27.5 23.5t-41.5 50.5
q-1 1 -1.5 2t-1.5 2v247q2 4 4 4h104q1 0 1 -0.5t1 -0.5v-252q0 -4 6 -13.5t14 -19.5t16.5 -17.5t14.5 -7.5t14.5 7.5t16.5 17.5t13.5 19.5t5.5 13.5v252q1 0 1 0.5t1 0.5h105q3 0 3 -4v-247q0 -2 -2 -4q-25 -35 -41.5 -50.5t-27.5 -23.5z" />
    <glyph glyph-name="Y" unicode="Y" horiz-adv-x="445" 
d="M376 703q3 0 3 -3v-287q0 -4 -9 -19.5t-23 -35.5t-32.5 -42t-37.5 -38v-275q0 -3 -3 -4h-102q-4 0 -4 4v275q-19 15 -37.5 36.5t-32.5 42t-23 36t-9 20.5v287q0 3 4 3h94q3 0 3 -3v-272q0 -6 6.5 -15.5t15.5 -19t18.5 -16.5t15.5 -7t15 7.5t18 17.5t15.5 19.5t6.5 13.5
v272q0 3 4 3h94z" />
    <glyph glyph-name="Z" unicode="Z" horiz-adv-x="448" 
d="M411 704q3 0 3 -3v-75q0 -8 -2 -14l-18.5 -37.5l-33 -65.5l-42.5 -83l-46.5 -90l-45.5 -88l-39 -76l-27.5 -53l-10.5 -20q-2 -2 -1 -4.5t3 -2.5l156 1q1 0 4 3v1l-1 98q0 3 3 3h97q4 0 4 -3v-188q0 -7 -6 -7h-370q-6 0 -6 7l-1 96q0 6 0.5 12t3.5 11q0 1 11.5 22l30 55
l41.5 77.5l47 88.5l128 241q0 4 -3 4h-116q-3 0 -3 -3v-78q0 -3 -4 -3h-97q-3 0 -3 3v168q0 3 3 3h341z" />
    <glyph glyph-name="zero" unicode="0" horiz-adv-x="422" 
d="M262 608q0 3 -3 3h-96q-3 0 -3 -3v-513q0 -4 3 -4h96q3 0 3 4v513zM270 701q38 0 65 -22.5t27 -60.5v-533q0 -39 -27 -61.5t-65 -22.5h1h-121h1q-38 0 -64.5 22.5t-26.5 61.5v533q0 38 26.5 60.5t64.5 22.5h-1h121h-1z" />
    <glyph glyph-name="one" unicode="1" horiz-adv-x="289" 
d="M223 2q0 -3 -4 -3h-115q-3 0 -3 3v600h-63q-3 0 -3 4v89q0 4 3 4h181q4 0 4 -4v-693z" />
    <glyph glyph-name="two" unicode="2" horiz-adv-x="434" 
d="M384 1q0 -3 -4 -3h-338q-2 0 -2 3v102q0 6 2 12l26 42.5l44.5 73l53 87l50.5 83l38 62.5l15 25q2 2 2 4v4v110q0 3 -3 3h-87q-3 0 -3 -3v-140h-99v139q0 19 7 36t19 29.5t28.5 20t36.5 7.5h102h12q40 0 64.5 -27t24.5 -65v-153q0 -5 -2 -9q0 -1 -15.5 -26.5l-39 -63.5
l-50.5 -82l-50.5 -82.5l-39.5 -64t-16 -26.5q-2 -2 -1 -3.5t3 -1.5h129v109q0 3 3 3h86q4 0 4 -3v-202z" />
    <glyph glyph-name="three" unicode="3" horiz-adv-x="406" 
d="M169 407l73 68v134q0 3 -3 3h-80q-3 0 -3 -3v-130q0 -3 -3 -3h-99q-4 0 -4 3v129q0 19 7.5 36t20 29.5t30 19.5t37.5 7h110q20 0 37.5 -7t30 -19.5t20 -29.5t7.5 -36v-124q0 -20 -16 -33l-75 -68q-1 -1 0 -1h80q11 0 11 -16v-274q0 -19 -7.5 -36t-20 -29.5t-30 -19.5
t-36.5 -7h-111q-20 0 -37 7t-30 19.5t-20.5 29.5t-7.5 36v145q0 4 4 4h99q3 0 3 -4v-145q0 -1 3 -4h80q3 1 3 4v217q0 3 -2 3h-69q-2 0 -2 1v2v92z" />
    <glyph glyph-name="five" unicode="5" horiz-adv-x="418" 
d="M267 450q19 0 36.5 -7t30.5 -20t20.5 -30t7.5 -36v-265q0 -19 -7.5 -36t-20.5 -29.5t-30.5 -20t-36.5 -7.5h-13h-102q-20 0 -37.5 7.5t-30 20t-20 29.5t-7.5 36v148h106v-148q0 -3 3 -3l89 -1q3 1 3 4v229q0 21 -6 30t-29 9h-164q-3 0 -3 3v333q1 3 3 3h289q3 0 3 -3
v-166q0 -3 -3 -3h-83q-3 0 -3 3v81q0 3 -3 3h-91q-3 0 -3 -4v-144q0 -5 2 -10.5t7 -5.5h93z" />
    <glyph glyph-name="four" unicode="4" horiz-adv-x="393" 
d="M226 294v327q-7 -20 -17 -51.5l-20.5 -67l-21.5 -71.5l-20 -65l-14.5 -47.5l-5.5 -18.5q-2 -6 2 -6h97zM324 699q3 0 3 -4v-693q0 -3 -3 -3h-95q-3 0 -3 3v213h-199q-2 0 -2 2v72v4.5t1 5.5l129 401z" />
    <glyph glyph-name="six" unicode="6" horiz-adv-x="413" 
d="M263 430q39 0 66.5 -25.5t27.5 -64.5v-247q0 -19 -7 -36t-19 -29.5t-29 -20t-36 -7.5h1h-104h1q-20 0 -37.5 7.5t-30 20t-20 29.5t-7.5 36v513q0 19 7.5 36.5t19.5 30t28 20t33 7.5h180h7q2 0 2 -3v-169q0 -4 -2 -4h-77q-4 0 -4 4v79q0 3 -2 3h-85q-3 0 -3 -3v-177h90z
M256 348q0 3 -3 3h-77q-3 0 -3 -3v-240q0 -3 3 -3h77q3 0 3 3v240z" />
    <glyph glyph-name="seven" unicode="7" horiz-adv-x="342" 
d="M68 3l139 613q0 3 -3 3h-81q-3 0 -4 -3v-86q0 -4 -3 -4h-88q-3 0 -3 3v1v170q0 3 3 3h285q4 0 4 -4v-70l-68 -312l-25 -115l-21.5 -100l-15.5 -71.5l-6 -27.5h-113z" />
    <glyph glyph-name="eight" unicode="8" horiz-adv-x="425" 
d="M261 316q0 16 -16 16h-65q-17 0 -17 -16v-224q0 -1 3 -4h92q3 1 3 4v224zM176 442q0 -16 16 -16h44q5 1 8 4.5t4 8.5v189q0 3 -3 3h-66q-3 0 -3 -3v-186zM298 385q31 -8 51 -32.5t20 -56.5v-204q0 -19 -7.5 -36t-20.5 -29.5t-30.5 -19.5t-36.5 -7h1h-126h1q-20 0 -37 7
t-29.5 19.5t-20 29.5t-7.5 36v204q0 32 20 56.5t50 32.5q-30 8 -44 32.5t-14 56.5v134q0 19 7.5 36t20.5 29.5t30 19.5t37 7h98q19 0 36.5 -7t30.5 -19.5t20.5 -29.5t7.5 -36v-134q0 -32 -13.5 -56.5t-44.5 -32.5z" />
    <glyph glyph-name="nine" unicode="9" horiz-adv-x="413" 
d="M249 703q40 0 67.5 -28t27.5 -72v-513q0 -17 -7.5 -32.5t-19.5 -27.5t-28 -19.5t-33 -7.5h-187q-2 0 -3 3v163q1 3 3 3h77q3 0 3 -3v-73q0 -3 3 -3h85q3 0 3 3v178h-90q-39 0 -66.5 25.5t-27.5 64.5v245q0 39 26 66.5t65 27.5h-1h104h-1zM240 595q0 3 -3 3h-77
q-3 0 -3 -3v-238q0 -4 3 -4h77q3 0 3 4v238z" />
    <glyph glyph-name="o" unicode="o" horiz-adv-x="427" 
d="M270 408q0 3 -3 3h-106q-4 0 -4 -3v-320q0 -2 4 -4h106q3 1 3 4v320zM283 494q39 0 65.5 -27.5t26.5 -66.5v-306q0 -39 -26.5 -66.5t-65.5 -27.5h1h-142h1q-39 0 -65 27.5t-26 66.5v306q0 39 26 66.5t65 27.5h140z" />
    <glyph glyph-name="l" unicode="l" horiz-adv-x="217" 
d="M157 728q2 0 4 -3v-721q-2 -4 -4 -4h-97q-4 0 -4 4v721q0 3 4 3h97z" />
    <glyph glyph-name="b" unicode="b" horiz-adv-x="440" 
d="M155 728q2 0 4 -3v-231h132q19 0 37 -7.5t31 -20t21 -30t8 -36.5v-306q0 -39 -26.5 -66.5t-65.5 -27.5h-141q-20 0 -38 7.5t-32 20t-22.5 29.5t-8.5 37v2v629q0 3 4 3h97zM283 403q0 3 -3 3h-117q-4 0 -4 -2v-311q0 -1 4 -3h117q3 1 3 4v309z" />
    <glyph glyph-name="p" unicode="p" horiz-adv-x="442" 
d="M285 402q0 2 -3 4h-117q-4 -2 -4 -3v-316q0 -2 4 -2h117q3 0 3 3v314zM298 494q39 0 65.5 -27.5t26.5 -66.5v-306q0 -39 -26.5 -66.5t-65.5 -27.5h-137v-195q-2 -3 -4 -3h-97q-4 0 -4 3v258.5v183.5t0.5 121t0.5 72v36.5v14.5q0 3 3 3h238z" />
    <glyph glyph-name="q" unicode="q" horiz-adv-x="440" 
d="M285 -198q-3 0 -4 3v195h-137q-39 0 -65.5 27.5t-26.5 66.5v306q0 39 26.5 66.5t65.5 27.5h151q39 0 65 -27.5t26 -66.5v-2v-593q0 -3 -4 -3h-97zM157 88q0 -3 3 -3h117q4 0 4 2v313q0 1 -4 3h-117q-3 -2 -3 -4v-311z" />
    <glyph glyph-name="d" unicode="d" horiz-adv-x="442" 
d="M157 84q0 -3 3 -4h117q4 2 4 3v321q0 2 -4 2h-117q-3 0 -3 -3v-319zM144 0q-39 0 -65.5 27.5t-26.5 66.5v306q0 39 26.5 66.5t65.5 27.5h137v231q1 3 4 3h97q4 0 4 -3v-261v-190t-0.5 -130t-0.5 -81v-43v-17q0 -3 -3 -3h-238z" />
    <glyph glyph-name="s" unicode="s" horiz-adv-x="430" 
d="M168 338q48 -25 88 -44l62.5 -31l32.5 -16q30 -17 30 -48l-1 -106q0 -19 -7.5 -36t-20 -29.5t-29 -20t-34.5 -7.5h-144q-19 0 -35.5 7.5t-29 20t-20 29.5t-7.5 36v71h100v-81q0 -2 2 -2h117q3 0 3 2v88q0 2 -3 4l-97 49l-36 18l-32 16l-22.5 11.5t-9.5 5.5q-6 3 -8.5 8.5
t-2.5 11.5v118q0 37 16.5 59t54.5 22h166q36 0 54 -22t18 -60v-58h-100v60q0 2 -2 2h-104l-1 -1q-1 0 -1 -1v-68v-4q0 -4 3 -4z" />
    <glyph glyph-name="c" unicode="c" horiz-adv-x="411" 
d="M272 494q39 0 65 -27.5t26 -66.5v-69q0 -3 -4 -3h-93q-3 0 -3 3v71q0 4 -3 4h-100q-3 0 -3 -4v-309q0 -3 3 -3h100q3 0 3 3v85q0 4 4 4h93q3 0 3 -4v-84q0 -39 -26 -66.5t-65 -27.5h1h-128h1q-39 0 -66.5 27.5t-27.5 66.5v306q0 19 7.5 36.5t20 30t29.5 20t37 7.5h-1h128
h-1z" />
    <glyph glyph-name="e" unicode="e" horiz-adv-x="426" 
d="M288 494q19 0 35.5 -8t28.5 -20.5t19 -29.5t7 -36v-188q0 -3 -4 -3h-217v-128q0 -3 3 -3h115q3 0 3 3v61q0 4 4 4h93q3 0 3 -4v-48q0 -20 -7 -37t-19 -29.5t-28.5 -20t-35.5 -7.5h-142q-39 0 -66.5 27.5t-27.5 66.5v306q0 19 7.5 36.5t20 30t29.5 20t37 7.5h142zM157 281
h121v126q0 4 -3 4h-115q-3 0 -3 -4v-126z" />
    <glyph glyph-name="f" unicode="f" horiz-adv-x="388" 
d="M315 493q3 0 3 -4v-71q0 -3 -3 -4h-121v-411q0 -3 -3 -3h-99q-3 0 -3 3v411h-36q-3 1 -3 4v71q0 4 3 4h36v116q0 39 27 66.5t66 28.5h112q19 0 36.5 -7.5t30 -20t20 -30t7.5 -37.5v-49q0 -3 -3 -3h-89q-3 0 -3 3v58q0 3 -3 3h-93q-3 0 -3 -3v-125h121v0z" />
    <glyph glyph-name="a" unicode="a" horiz-adv-x="433" 
d="M274 281v132q0 3 -3 3h-109q-3 0 -3 -3v-60q0 -4 -4 -4h-93q-3 0 -3 4v47q0 19 7 36.5t19 30t28.5 20t35.5 7.5h136q19 0 36.5 -7.5t30 -20t20 -30t7.5 -36.5v-397q0 -1 -1 -2l-1 -1h-238q-19 0 -35.5 7.5t-28.5 20.5t-19 30t-7 36v93q0 19 7 36.5t19 30t28.5 20
t35.5 7.5h135zM274 210h-122q-3 0 -3 -3v-121q0 -4 3 -4h119q3 0 3 4v124z" />
    <glyph glyph-name="g" unicode="g" horiz-adv-x="416" 
d="M52 400q0 19 7 36t19 29.5t28.5 20.5t35.5 8h128q19 0 36.5 -7.5t30 -20t20 -30t7.5 -36.5v-504q0 -20 -7.5 -37t-20 -29.5t-30 -20t-36.5 -7.5h-128q-19 0 -35.5 7.5t-28.5 20t-19 29.5t-7 37v36q0 4 3 4h93q4 0 4 -4v-42q0 -3 3 -3h101q3 0 3 3v110h-116
q-37 3 -63.5 28.5t-27.5 62.5v309zM259 402q0 4 -3 4h-96q-3 0 -3 -4v-314h102v314z" />
    <glyph glyph-name="n" unicode="n" horiz-adv-x="440" 
d="M294 494q19 0 36.5 -7.5t30 -20t20 -30t7.5 -37.5v-396q0 -3 -3 -3h-99q-3 0 -3 3v400q0 3 -3 3h-120q-3 0 -3 -3v-400q0 -3 -3 -3h-99q-3 0 -3 3v396q0 20 7.5 37.5t20 30t29.5 20t37 7.5h-1h149z" />
    <glyph glyph-name="h" unicode="h" horiz-adv-x="444" 
d="M158 728q2 0 4 -3v-231h136q19 0 36.5 -7.5t30 -20t20 -30t7.5 -37.5v-396q0 -3 -3 -3h-99q-3 0 -3 3v400q0 3 -3 3h-120q-2 0 -2 -2l-1 -401q0 -3 -3 -3h-99q-3 0 -3 3l1 722q0 3 4 3h97z" />
    <glyph glyph-name="u" unicode="u" horiz-adv-x="440" 
d="M145 0h1q-20 0 -37 7.5t-29.5 20t-20 30t-7.5 37.5v396q0 3 3 3h99q3 0 3 -3v-403q0 -3 3 -3h120q3 0 3 3v403q0 3 3 3h99q3 0 3 -3v-396q0 -20 -7.5 -37.5t-20 -30t-30 -20t-36.5 -7.5h-149z" />
    <glyph glyph-name="m" unicode="m" horiz-adv-x="614" 
d="M52 399q0 39 26.5 67t65.5 28h82q23 0 38 -8t24.5 -18.5t14 -22t5.5 -18.5q0 7 2 18.5t10.5 22t25.5 18.5t46 8h76q19 0 36.5 -7.5t30 -20.5t20 -30.5t7.5 -36.5v-396q0 -3 -4 -3h-97q-4 0 -4 3v394q0 9 -9 9h-52q-16 0 -30 -8t-14 -28v-367q0 -3 -4 -3h-82q-4 0 -4 3
v367q0 21 -12.5 28.5t-30.5 7.5h-54q-8 0 -8 -9v-394q0 -3 -4 -3h-97q-4 0 -4 3v396z" />
    <glyph glyph-name="r" unicode="r" horiz-adv-x="317" 
d="M147 494h142q3 0 3 -3v-82q0 -3 -3 -3h-127q-3 0 -3 -3v-400q0 -3 -3 -3h-99q-3 0 -3 3v396q0 20 7.5 37.5t20 30t29.5 20t36 7.5z" />
    <glyph glyph-name="i" unicode="i" horiz-adv-x="222" 
d="M162 494q2 0 4 -3v-487q-2 -4 -4 -4h-97q-4 0 -4 4v487q0 3 4 3h97zM162 704q2 0 4 -3v-99q-2 -4 -4 -4h-102q-4 0 -4 4v99q0 3 4 3h102z" />
    <glyph glyph-name="j" unicode="j" horiz-adv-x="215" 
d="M157 704q2 0 4 -3v-79q-2 -4 -4 -4h-102q-4 0 -4 4v79q0 3 4 3h102zM-25 -198q-3 0 -3 3v78q0 3 3 3h78q3 0 3 3v602q0 3 3 3h99q3 0 3 -3v-594q0 -20 -7.5 -37.5t-20 -30t-30 -20t-36.5 -7.5h-92z" />
    <glyph glyph-name="t" unicode="t" horiz-adv-x="291" 
d="M93 611q0 3 4 3h97q2 0 4 -3v-117h72q3 0 3 -4v-76q0 -3 -3 -4h-72v-406q-2 -4 -4 -4h-97q-4 0 -4 4v406h-72q-3 1 -3 4v76q0 4 3 4h72v117z" />
    <glyph glyph-name="v" unicode="v" horiz-adv-x="424" 
d="M52 491q0 3 4 3h98q3 0 3 -4v-319q0 -6 7.5 -16.5t17.5 -21.5t19 -19t11 -8q6 0 15 8.5t18 20t15.5 22t6.5 14.5v320q0 3 3 3h99q3 0 3 -4v-334q0 -2 -0.5 -6.5t-1.5 -6.5q-5 -12 -21.5 -35.5t-39 -47.5t-48.5 -42t-49 -18t-49.5 18.5t-49.5 42.5t-39.5 47.5t-20.5 34.5
q0 2 -0.5 6.5t-0.5 6.5v335z" />
    <glyph glyph-name="w" unicode="w" horiz-adv-x="614" 
d="M52 491q0 3 4 3h97q4 0 4 -3v-392q0 -9 8 -9h54q18 0 30.5 7.5t12.5 28.5v365q0 3 4 3h82q4 0 4 -3v-365q0 -20 14 -28t30 -8h52q9 0 9 9v392q0 3 4 3h97q4 0 4 -3v-396q0 -20 -7.5 -37t-20 -30t-30 -20.5t-36.5 -7.5h-76q-29 0 -46 8t-25.5 18.5t-10.5 22t-2 18.5
q-1 -7 -5.5 -18.5t-14 -22t-24.5 -18.5t-38 -8h-82q-39 0 -65.5 28t-26.5 67v396z" />
    <glyph glyph-name="k" unicode="k" horiz-adv-x="467" 
d="M308 302q7 0 24.5 -1.5t36 -9.5t32.5 -25t14 -47v-216q0 -3 -3 -3h-94q-3 0 -3 3v175q0 20 -5 36q-5 14 -15.5 25.5t-32.5 11.5h-98q-3 -2 -3 -4v-243q0 -4 -3 -4h-98q-4 0 -4 4v721q0 3 4 3h98q3 0 3 -3v-395q0 -3 4 -3h47q7 0 16 1.5t17.5 9t14 23.5t5.5 44v86q0 3 3 3
h94q3 0 3 -3v-111q0 -24 -6.5 -39t-15.5 -23.5t-18.5 -11.5t-16.5 -4z" />
    <glyph glyph-name="z" unicode="z" horiz-adv-x="459" 
d="M406 494q3 0 3 -3v-71q0 -4 -0.5 -8.5t-2.5 -6.5l-239 -308q-2 -3 -1 -5t3 -2h138q1 0 4 3v1v80q0 3 3 3h93q4 0 4 -3v-170q0 -4 -4 -4h-360q-3 0 -3 4v104q0 7 3 10l231 287q0 4 -3 4h-109q-3 0 -3 -3v-1v-57q0 -3 -4 -3h-96q-3 0 -3 3v143q0 3 3 3h343z" />
    <glyph glyph-name="x" unicode="x" horiz-adv-x="454" 
d="M316 265q11 -6 36 -21t50 -48v-194q0 -3 -3 -3h-99q-4 0 -4 3v77q0 29 0.5 55.5t0.5 32.5q0 5 -9 15t-20.5 19.5t-23 16.5t-17.5 7t-17.5 -7t-23 -16.5t-20.5 -19.5t-9 -15v-165q0 -3 -4 -3h-98q-3 0 -3 3v194q25 33 50 48t36 21q-11 8 -27.5 33.5t-41.5 60.5
q-1 1 -1.5 2t-1.5 2v127q2 4 4 4h99q1 0 1 -0.5t1 -0.5v-122q0 -4 6.5 -16.5t15.5 -26t18.5 -24.5t15.5 -11t15 11t18 24.5t15.5 26t6.5 16.5v122q1 0 1 0.5t1 0.5h100q3 0 3 -4v-127q0 -2 -2 -4q-25 -35 -41.5 -60.5t-27.5 -33.5z" />
    <glyph glyph-name="y" unicode="y" horiz-adv-x="423" 
d="M367 -105q0 -20 -7.5 -37t-20 -29.5t-30 -20t-36.5 -7.5h-128q-19 0 -35.5 7.5t-28.5 20t-19 29.5t-7 37v44q0 4 3 4h93q4 0 4 -4v-50q0 -3 3 -3h101q3 0 3 3v112h-116q-37 3 -63.5 28.5t-27.5 62.5h-1v398h1q0 4 3 4h98q4 0 4 -4l-1 -406h103v406h1q0 4 3 4h98q4 0 4 -4
h1l-2 -406v-189z" />
    <glyph glyph-name="period" unicode="." horiz-adv-x="160" 
d="M136 102q2 0 4 -3v-94q-2 -4 -4 -4h-112q-4 0 -4 4v94q0 3 4 3h112z" />
    <glyph glyph-name="comma" unicode="," horiz-adv-x="165" 
d="M141 108q2 0 4 -3v-190q-3 -5 -4 -4l-61 89h-56q-4 0 -4 4v101q0 3 4 3h117z" />
    <glyph glyph-name="colon" unicode=":" horiz-adv-x="220" 
d="M166 102q2 0 4 -3v-94q-2 -4 -4 -4h-112q-4 0 -4 4v94q0 3 4 3h112zM166 454q2 0 4 -3v-94q-2 -4 -4 -4h-112q-4 0 -4 4v94q0 3 4 3h112z" />
    <glyph glyph-name="semicolon" unicode=";" horiz-adv-x="233" 
d="M166 493q2 0 4 -3v-94q-2 -4 -4 -4h-112q-4 0 -4 4v94q0 3 4 3h112zM179 108q2 0 4 -3v-190q-3 -5 -4 -4l-61 89h-56q-4 0 -4 4v101q0 3 4 3h117z" />
    <glyph glyph-name="quotedblbase" unicode="&#x201e;" horiz-adv-x="833" 
 />
    <glyph glyph-name="quotedblleft" unicode="&#x201c;" horiz-adv-x="422" 
d="M251 529q-3 0 -4 3v190q3 5 4 4l61 -89h56q4 0 4 -4v-101q0 -3 -4 -3h-117zM54 529q-3 0 -4 3v190q3 5 4 4l61 -89h56q4 0 4 -4v-101q0 -3 -4 -3h-117z" />
    <glyph glyph-name="quotedblright" unicode="&#x201d;" horiz-adv-x="422" 
d="M171 727q2 0 4 -3v-190q-3 -5 -4 -4l-61 89h-56q-4 0 -4 4v101q0 3 4 3h117zM368 727q2 0 4 -3v-190q-3 -5 -4 -4l-61 89h-56q-4 0 -4 4v101q0 3 4 3h117z" />
    <glyph glyph-name="question" unicode="?" horiz-adv-x="389" 
d="M245 158q0 -3 -4 -3h-109q-2 0 -2 3v130q0 6 2 12l28 45l36 57.5l31 49.5l13 21q2 2 2 4v4v140q0 3 -3 3h-87q-3 0 -3 -3v-141h-99v140q0 19 7 36t19 29.5t28.5 20t36.5 7.5h97h12q40 0 64.5 -27t24.5 -65v-183q0 -5 -2 -9q0 -1 -6.5 -12l-16.5 -27.5l-21.5 -35.5
l-21.5 -35.5l-17 -28t-7 -12.5q-1 -1 -1 -5zM247 102q2 0 4 -3v-94q-2 -4 -4 -4h-112q-4 0 -4 4v94q0 3 4 3h112z" />
    <glyph glyph-name="exclam" unicode="!" horiz-adv-x="232" 
d="M172 102q2 0 4 -3v-94q-2 -4 -4 -4h-112q-4 0 -4 4v94q0 3 4 3h112zM169 728q2 0 4 -3v-581q-2 -4 -4 -4h-107q-4 0 -4 4v581q0 3 4 3h107z" />
    <glyph glyph-name="equal" unicode="=" horiz-adv-x="509" 
d="M459 304q0 -3 -3 -4h-402q-4 2 -4 4v50q0 4 4 4h402q3 0 3 -4v-50zM459 114q0 -3 -3 -4h-402q-4 2 -4 4v50q0 4 4 4h402q3 0 3 -4v-50z" />
    <glyph glyph-name="quotedbl" unicode="&#x22;" horiz-adv-x="331" 
d="M126 728q2 0 4 -3v-154q-2 -4 -4 -4h-102q-4 0 -4 4v154q0 3 4 3h102zM307 728q2 0 4 -3v-154q-2 -4 -4 -4h-102q-4 0 -4 4v154q0 3 4 3h102z" />
    <glyph glyph-name="numbersign" unicode="#" horiz-adv-x="542" 
d="M101 1q-3 0 -3 5l19 195h-84q-3 3 -3 6l8 75q0 6 4 6h84l16 139h-84q-3 3 -3 6l8 75q0 6 4 6h84l17 181q2 6 5 6h70q3 0 3 -6l-17 -181h112l17 181q2 6 5 6h70q3 0 3 -6l-17 -181h90q3 0 3 -6l-8 -75q0 -5 -4 -6h-90l-16 -139h90q3 0 3 -6l-8 -75q0 -5 -4 -6h-90
l-19 -195q-2 -5 -5 -5h-70q-3 0 -3 5l19 195h-112l-19 -195q-2 -5 -5 -5h-70zM204 288h112l16 139h-112z" />
    <glyph glyph-name="dollar" unicode="$" horiz-adv-x="415" 
d="M347 329q11 -7 11 -21v-216q0 -19 -7.5 -36t-20.5 -29.5t-30.5 -20t-36.5 -7.5h-118q-20 0 -37.5 7.5t-30 20t-20 29.5t-7.5 36v148h91v-148q0 -3 3 -3h113q3 0 3 3v174v4l-1.5 1.5t-2.5 1.5l-22 14.5l-35.5 23.5l-40.5 27.5l-39.5 26.5t-30.5 20.5t-14 10.5
q-8 5 -12 14.5t-4 18.5v182q0 19 7.5 36t20 29.5t29.5 20t37 7.5h119q19 0 36.5 -7.5t30 -20t20 -29.5t7.5 -36v-137h-90v137q0 3 -4 3h-113q-3 0 -3 -3v-137v-4q0 -6 2 -9q1 -4 5 -6q2 -1 3 -2l89 -61l33 -23l29 -20l21.5 -14.5t9.5 -5.5zM189 -39q-3 0 -4 3v776q2 4 4 4
h40q4 0 4 -4v-776q0 -3 -4 -3h-40z" />
    <glyph glyph-name="less" unicode="&#x3c;" horiz-adv-x="364" 
d="M311 529q3 0 3 -4v-95q0 -2 -3 -3l-132 -130q-2 -2 -3 -5t-1 -4v-2q0 -5 4 -11l132 -130q3 0 3 -3v-95q0 -4 -3 -4l-23 1q-2 -1 -3 0t-3 2t-3 2l-224 226q-4 5 -5 11v1v2q2 7 5 10l224 226q1 1 3 2q4 2 6 2z" />
    <glyph glyph-name="percent" unicode="%" horiz-adv-x="747" 
d="M291 5q-1 -2 -1.5 -3.5t-4.5 -1.5h-104q-6 0 -6 5l276 693q2 5 7 5h103q6 0 6 -5zM640 243v1l-1 1h-110q-1 0 -2 -1l-1 -1v-183q0 -3 3 -3h12h79h19q1 0 1 3v183zM645 302q27 0 44.5 -18.5t17.5 -45.5v-175q0 -26 -17.5 -44.5t-44.5 -18.5h1h-126h1q-27 0 -44.5 18.5
t-17.5 44.5v175q0 27 17.5 45.5t44.5 18.5h124zM221 646l-1 1h-110q-1 0 -2 -1h-1v-183q0 -3 3 -3h12h79h19q1 0 1 3v183zM226 705q26 0 44 -18.5t18 -45.5v-175q0 -27 -18 -45t-44 -18h1h-127h2q-27 0 -44.5 18t-17.5 45v175q0 27 17.5 45.5t44.5 18.5h124z" />
    <glyph glyph-name="slash" unicode="/" horiz-adv-x="440" 
d="M126 3q-2 -3 -4 -3h-78q-4 0 -4 3l274 695q1 3 5 3h77q4 0 4 -3z" />
    <glyph glyph-name="ampersand" unicode="&#x26;" horiz-adv-x="472" 
d="M370 311v-1v-218q0 -19 -7.5 -36t-20.5 -29.5t-30.5 -19.5t-36.5 -7h-131q-20 0 -37 7t-29.5 19.5t-20 29.5t-7.5 36v283q0 16 11 16l72 -1l-67 50q-16 13 -16 33v135q0 19 7.5 36t20 29.5t30 19.5t37.5 7h110q20 0 37.5 -7t30 -19.5t20 -29.5t7.5 -36v-129q0 -3 -4 -3
h-99q-3 0 -3 3v130q0 3 -3 3h-80q-3 0 -3 -3v-145l90 -73l170 -1v-79h-48zM264 311l-104 1q-2 0 -2 -3v-217q0 -3 3 -4h100q3 3 3 4v218v1z" />
    <glyph glyph-name="quotesingle" unicode="'" horiz-adv-x="165" 
d="M141 728q2 0 4 -3v-190q-3 -5 -4 -4l-61 89h-56q-4 0 -4 4v101q0 3 4 3h117z" />
    <glyph glyph-name="parenleft" unicode="(" horiz-adv-x="205" 
d="M118 156q0 -27 7.5 -49t17 -37t19 -23.5t13.5 -8.5v-34q0 -4 -3 -4h-54q-23 0 -39.5 17.5t-27 42t-16 51.5t-5.5 47v400q0 23 7.5 48t20.5 46t30 34.5t37 13.5h41q3 0 3 -4v-34q0 -4 -3 -4q-16 0 -32 -27t-16 -73v-402z" />
    <glyph glyph-name="parenright" unicode=")" horiz-adv-x="240" 
d="M101 558q0 46 -16 73t-32 27q-3 0 -3 4v34q0 4 3 4h41q19 0 36.5 -13.5t30.5 -34.5t20.5 -46t7.5 -48v-400q0 -20 -5.5 -47t-16 -51.5t-27.5 -42t-39 -17.5h-54q-3 0 -3 4v34q4 0 13 8.5t19 23.5t17.5 37t7.5 49v402z" />
    <glyph glyph-name="bracketleft" unicode="[" horiz-adv-x="303" 
d="M250 700q3 0 3 -4v-60q0 -4 -4 -4h-104v-564h104q4 0 4 -4v-60q0 -4 -3 -4h-197q-3 0 -3 4l1 692q0 4 3 4h196z" />
    <glyph glyph-name="bracketright" unicode="]" horiz-adv-x="303" 
d="M249 700q3 0 3 -4l1 -692q0 -4 -3 -4h-197q-3 0 -3 4v60q0 4 4 4h104v564h-104q-4 0 -4 4v60q0 4 3 4h196z" />
    <glyph glyph-name="backslash" unicode="\" horiz-adv-x="460" 
d="M50 698q0 3 4 3h77q3 0 5 -3l274 -695q0 -3 -4 -3h-78q-3 0 -4 3z" />
    <glyph glyph-name="asterisk" unicode="*" horiz-adv-x="331" 
d="M166 494l-5 -21l-37 -99q-1 -2 -2 -2h-61q-1 0 -1 2l60 150h-98q-1 0 -1 1q-1 0 -1 2v50q0 2 3 2h97l-60 150q0 2 1 2h61q1 0 2 -2l37 -98l5 -22l4 22l37 98q1 2 3 2h60q2 0 2 -2l-61 -150h97q3 0 3 -2v-50q0 -1 -1 -2v-1h-99l61 -150q0 -2 -2 -2h-60q-2 0 -3 2l-37 99z
" />
    <glyph glyph-name="hyphen" unicode="-" horiz-adv-x="354" 
d="M320 301q4 0 4 -4v-60q0 -4 -3 -4h-288q-3 0 -3 4v60q0 2 2.5 3t1.5 1h286z" />
    <glyph glyph-name="at" unicode="@" horiz-adv-x="644" 
d="M523 505q31 0 50 -17t21 -47v-438q0 -1 -1 -2l-1 -1h-352q-32 1 -54 24t-22 56v138q0 2 3 2h215v85q0 3 -2 3h-130q-2 0 -2 -3v-34q0 -4 -3 -4h-78q-3 0 -3 4v33q0 34 22 57t54 23h150q33 0 56.5 -23t23.5 -57v-228h65v365q0 6 -5 6h-418q-4 0 -4 -6v-478q0 -4 6 -4h327
q4 0 4 -4v-50q0 -4 -3 -4h-332q-7 0 -16.5 4.5t-19 12.5t-16.5 20t-8 27v469q0 31 17 50t47 21h409zM382 159h-134v-81q0 -3 2 -3h130q2 0 2 3v81z" />
    <glyph glyph-name="plus" unicode="+" horiz-adv-x="434" 
d="M395 268q4 0 4 -4v-60q0 -4 -3 -4h-358q-3 0 -3 4v60q0 2 2.5 3t1.5 1h356zM183 412q0 4 4 4h60q4 0 4 -3v-358q0 -3 -4 -3h-60q-2 0 -3 2.5t-1 1.5v356z" />
    <glyph glyph-name="endash" unicode="&#x2013;" horiz-adv-x="527" 
d="M473 299q4 0 4 -4v-60q0 -4 -3 -4h-421q-3 0 -3 4v60q0 2 2.5 3t1.5 1h419z" />
    <glyph glyph-name="emdash" unicode="&#x2014;" horiz-adv-x="863" 
d="M809 299q4 0 4 -4v-60q0 -4 -3 -4h-757q-3 0 -3 4v60q0 2 2.5 3t1.5 1h755z" />
    <glyph glyph-name="grave" unicode="`" horiz-adv-x="256" 
d="M56 728q0 3 4 3h66q3 0 5 -3l60 -164q0 -3 -4 -3h-67q-3 0 -4 3z" />
    <glyph glyph-name="underscore" unicode="_" horiz-adv-x="557" 
d="M503 -90q4 0 4 -4v-60q0 -4 -3 -4h-451q-3 0 -3 4v60q0 2 2.5 3t1.5 1h449z" />
    <glyph glyph-name="caron" unicode="&#x2c7;" horiz-adv-x="833" 
d="M218 725q0 3 4 3h95q1 0 3 -3l130 -132q2 -2 5 -3t4 -1h2q5 0 11 4l130 132q0 3 3 3h95q4 0 4 -3l-1 -23q0 -2 -2 -6q-1 -2 -2 -3l-226 -224q-5 -4 -11 -5h-1h-2q-2 1 -5 2t-5 3l-226 224q-1 1 -2 3t-2 3t0 3z" />
    <glyph glyph-name="greater" unicode="&#x3e;" horiz-adv-x="364" 
d="M53 43q-3 0 -3 4v95q0 1 3 3l132 130q2 2 3 5t1 4v2q0 5 -4 11l-132 130q-3 0 -3 3v95q0 4 3 4l23 -1q2 0 6 -2q2 -1 3 -2l224 -226q4 -5 5 -11v-1v-2q-1 -2 -2 -5t-3 -5l-224 -226q-1 -1 -3 -2q-5 -3 -6 -2z" />
    <glyph glyph-name="braceleft" unicode="{" horiz-adv-x="295" 
d="M138 419q26 -10 46 -17l31.5 -11t12.5 -5v-10q2 0 -12 -6l-31 -13l-47 -18v-213q0 -27 12.5 -46.5t29 -32t34 -19t28.5 -6.5q3 0 3 -4v-14q0 -4 -3 -4h-104q-23 0 -39.5 14t-27 34t-16 42t-5.5 38v208q0 2 1.5 5.5t5.5 3.5q10 7 19 12l14.5 9t10.5 4l50 9l-50 9
q-4 0 -11 5l-15 11q-9 7 -19 16q-6 1 -6 10v158q0 19 7.5 39t20.5 36t30 26.5t37 10.5h91q3 0 3 -4v-14q0 -4 -3 -4q-4 0 -20 -5t-33 -15.5t-31 -27.5t-14 -42v-169z" />
    <glyph glyph-name="braceright" unicode="}" horiz-adv-x="295" 
d="M157 588q0 25 -14 42t-31 27.5t-33 15.5t-20 5q-3 0 -3 4v14q0 4 3 4h91q19 0 36.5 -10.5t30.5 -26.5t20.5 -36t7.5 -39v-158q0 -9 -6 -10q-10 -9 -19 -16l-15 -11t-11 -5l-50 -9l50 -9q3 0 10 -4l15 -9q9 -5 19 -12q4 0 5.5 -3.5t1.5 -5.5v-208q0 -16 -5.5 -38t-16 -42
t-27.5 -34t-39 -14h-104q-3 0 -3 4v14q0 4 3 4q10 0 28 6.5t34.5 19t29 32t12.5 46.5v213l-47 18l-31 13t-12 6v10q-2 0 12 5l31 11l47 17v169z" />
    <glyph glyph-name="bar" unicode="|" horiz-adv-x="189" 
d="M139 3q-1 -2 -1 -2.5t-2 -0.5h-80q-4 0 -4 3l-2 697q0 3 4 3h77q4 0 5 -3z" />
    <glyph glyph-name="dotaccent" unicode="&#x2d9;" horiz-adv-x="220" 
d="M166 728q2 0 4 -3v-94q-2 -4 -4 -4h-112q-4 0 -4 4v94q0 3 4 3h112z" />
    <glyph glyph-name="ring" unicode="&#x2da;" horiz-adv-x="326" 
d="M193 651q0 2 -2 2h-55q-2 0 -2 -2v-70q0 -2 2 -2h12h26h17q2 0 2 2v70zM193 701q23 0 39.5 -17t16.5 -41v-54q0 -24 -16.5 -41t-39.5 -17h-60q-23 0 -39.5 17t-16.5 41v54q0 24 16.5 41t39.5 17h60z" />
    <glyph glyph-name="bullet" unicode="&#x2022;" horiz-adv-x="300" 
d="M185 400q28 0 46.5 -19.5t18.5 -47.5v-64q0 -28 -18.5 -47.5t-46.5 -19.5h-70h1q-29 0 -47.5 19.5t-18.5 47.5v64q0 28 18.5 47.5t47.5 19.5h69z" />
    <glyph glyph-name="quoteright" unicode="&#x2019;" horiz-adv-x="225" 
d="M171 727q2 0 4 -3v-190q-3 -5 -4 -4l-61 89h-56q-4 0 -4 4v101q0 3 4 3h117z" />
    <glyph glyph-name="quoteleft" unicode="&#x2018;" horiz-adv-x="225" 
d="M54 526q-3 0 -4 3v190q3 5 4 4l61 -89h56q4 0 4 -4v-101q0 -3 -4 -3h-117z" />
    <glyph glyph-name="asciitilde" unicode="~" horiz-adv-x="833" 
d="M165 360q0 39 26.5 67t65.5 28h84q23 0 37 -9.5t22.5 -22t12 -25.5t4.5 -20q0 7 1.5 20t9.5 25.5t24 22t45 9.5h77q19 0 36.5 -7.5t30 -20.5t20 -30.5t7.5 -36.5v-357q0 -3 -4 -3h-95q-4 0 -4 3v357q0 4 -4 4h-46q-8 0 -17.5 -2t-17.5 -6.5t-13.5 -11t-5.5 -16.5v-325
q0 -3 -4 -3h-81q-4 0 -4 3v325q0 21 -17.5 28.5t-35.5 7.5h-51q-3 -2 -3 -4v-357q0 -3 -4 -3h-92q-4 0 -4 3v357z" />
    <glyph glyph-name="tilde" unicode="&#x2dc;" horiz-adv-x="394" 
d="M148 622q-3 3 -8 0l-87 -39q-3 0 -3 4v60q0 2 2.5 3t1.5 1l33 17q12 7 22.5 12t11.5 6q10 4 22.5 3.5t18.5 -3.5l82 -45q3 -2 6 0l91 40q3 0 3 -4v-60q0 -2 -4 -4l-65 -35q-20 -11 -44 0z" />
    <glyph glyph-name="acute" unicode="&#xb4;" horiz-adv-x="256" 
d="M131 564q-2 -3 -4 -3h-67q-4 0 -4 3l60 164q1 3 5 3h66q4 0 4 -3z" />
    <glyph glyph-name="circumflex" unicode="&#x2c6;" horiz-adv-x="434" 
d="M83 585q0 4 1 5q0 1 1 2l126 125q0 1 2 1.5t3 0.5h2q3 0 5 -2l126 -125q1 -2 2 -3.5t0 -4.5v-20v-1q0 -1 -2 -1h-49q-2 0 -5 3l-72 72q-3 3 -6 3h-1q-1 -1 -2 -1q-3 -3 -3 -2l-73 -73q-2 -2 -3 -2h-50q-1 0 -1 1l-1 1v21z" />
    <glyph glyph-name="degree" unicode="&#xb0;" horiz-adv-x="833" 
d="M471 637q0 3 -3 3h-105q-3 0 -3 -3v-128q0 -3 3 -3h105q3 0 3 3v128zM461 704q36 0 61 -26t25 -64v-82q0 -38 -25 -64t-61 -26h-92q-36 0 -61 26t-25 64v82q0 38 25 64t61 26h92z" />
    <glyph glyph-name="ellipsis" unicode="&#x2026;" horiz-adv-x="560" 
d="M166 102q2 0 4 -3v-94q-2 -4 -4 -4h-112q-4 0 -4 4v94q0 3 4 3h112zM330 102q2 0 4 -3v-94q-2 -4 -4 -4h-112q-4 0 -4 4v94q0 3 4 3h112zM506 102q2 0 4 -3v-94q-2 -4 -4 -4h-112q-4 0 -4 4v94q0 3 4 3h112z" />
    <glyph glyph-name="_0004" horiz-adv-x="0" 
 />
    <glyph glyph-name="dieresis" unicode="&#xa8;" horiz-adv-x="420" 
d="M174 732q1 0 3 -3v-77l-3 -3h-92q-3 0 -3 3v77q0 3 3 3h92zM338 732q3 0 3 -3v-77q0 -3 -3 -3h-92q-3 0 -3 3v77q0 3 3 3h92z" />
    <glyph glyph-name="periodcentered" unicode="&#xb7;" horiz-adv-x="161" 
d="M136 332q2 0 4 -3v-94q-2 -4 -4 -4h-112q-4 0 -4 4v94q0 3 4 3h112z" />
    <glyph glyph-name="dotlessi" unicode="&#x131;" horiz-adv-x="235" 
d="M171 455q2 0 4 -3v-448q-2 -4 -4 -4h-107q-4 0 -4 4v448q0 3 4 3h107z" />
    <glyph glyph-name="multiply" unicode="&#xd7;" horiz-adv-x="382" 
d="M293 384q2 2 5 0l43 -43q0 -1 0.5 -1t0.5 -1v-2l-254 -254h-2q-2 0 -2 1l-43 43q-1 1 0 3.5t0 1.5zM41 336q-3 2 0 5l43 43l2 1h2l254 -254v-2q0 -1 -1 -2l-43 -43q-1 -1 -3.5 0t-1.5 0z" />
    <glyph glyph-name="Oslash" unicode="&#xd8;" 
d="M290 611q0 3 -3 3h-112q-4 0 -4 -3v-517q0 -2 4 -4h112q3 1 3 4v517zM305 704q19 0 36.5 -7.5t30.5 -20t20.5 -30t7.5 -36.5v-516q0 -20 -7.5 -37t-20.5 -29.5t-30.5 -20t-36.5 -7.5h1h-152h1q-20 0 -37 7.5t-29.5 20t-20 29.5t-7.5 37v516q0 19 7.5 36.5t20 30t29.5 20
t37 7.5h150zM130 3q-2 -3 -4 -3h-78q-4 0 -4 3l274 695q1 3 5 3h77q4 0 4 -3z" />
    <glyph glyph-name="ae" unicode="&#xe6;" horiz-adv-x="630" 
d="M282 281v132q0 3 -3 3h-109q-3 0 -3 -3v-60q0 -4 -4 -4h-93q-3 0 -3 4v47q0 19 7 36.5t19 30t28.5 20t35.5 7.5h136q19 0 36.5 -7.5t30 -20t20 -30t7.5 -36.5v-397q0 -1 -1 -2l-1 -1h-238q-19 0 -35.5 7.5t-28.5 20.5t-19 30t-7 36v93q0 19 7 36.5t19 30t28.5 20
t35.5 7.5h135zM282 210h-122q-3 0 -3 -3v-121q0 -4 3 -4h119q3 0 3 4v124zM499 494q19 0 35.5 -8t28.5 -20.5t19 -29.5t7 -36v-188q0 -3 -4 -3h-217v-128q0 -3 3 -3h115q3 0 3 3v61q0 4 4 4h93q3 0 3 -4v-48q0 -20 -7 -37t-19 -29.5t-28.5 -20t-35.5 -7.5h-142
q-39 0 -66.5 27.5t-27.5 66.5v306q0 19 7.5 36.5t20 30t29.5 20t37 7.5h142zM368 281h121v126q0 4 -3 4h-115q-3 0 -3 -4v-126z" />
    <glyph glyph-name="eth" unicode="&#xf0;" horiz-adv-x="500" 
d="M246 612l-17 48q0 3 4 3h66q3 0 5 -3l18 -48h77q4 0 4 -4v-47q0 -4 -3 -4h-58l43 -115q10 -22 10 -42v-306q0 -39 -26.5 -66.5t-65.5 -27.5h-140q-39 0 -65 27.5t-26 66.5v306q0 39 26 66.5t65 27.5h127q-1 1 -1 2l-23 61h-88q-3 0 -3 4v47q0 2 2.5 3t1.5 1h67zM290 403
q0 3 -3 3h-106q-4 0 -4 -3v-309q0 -2 4 -4h106q3 1 3 4v309z" />
    <glyph glyph-name="divide" unicode="&#xf7;" horiz-adv-x="502" 
d="M459 262q4 0 4 -4v-60q0 -4 -3 -4h-418q-3 0 -3 4v60q0 2 2.5 3t1.5 1h416zM313 102q2 0 4 -3v-94q-2 -4 -4 -4h-112q-4 0 -4 4v94q0 3 4 3h112zM313 454q2 0 4 -3v-94q-2 -4 -4 -4h-112q-4 0 -4 4v94q0 3 4 3h112z" />
    <glyph glyph-name="oslash" unicode="&#xf8;" horiz-adv-x="425" 
d="M270 408q0 3 -3 3h-106q-4 0 -4 -3v-320q0 -2 4 -4h106q3 1 3 4v320zM283 494q39 0 65.5 -27.5t26.5 -66.5v-306q0 -39 -26.5 -66.5t-65.5 -27.5h1h-142h1q-39 0 -65 27.5t-26 66.5v306q0 39 26 66.5t65 27.5h140zM142.75 16.874q-1.25 -1.87402 -2.5 -1.87402h-48.75
q-2.5 0 -2.5 1.87402l171.25 434.248q0.625 1.875 3.125 1.875h48.125q2.5 0 2.5 -1.875z" />
    <glyph glyph-name="igrave" unicode="&#xec;" horiz-adv-x="235" 
d="M171 455q2 0 4 -3v-448q-2 -4 -4 -4h-107q-4 0 -4 4v448q0 3 4 3h107zM46 721q0 3 4 3h66q3 0 5 -3l60 -164q0 -3 -4 -3h-67q-3 0 -4 3z" />
    <glyph glyph-name="iacute" unicode="&#xed;" horiz-adv-x="235" 
d="M171 455q2 0 4 -3v-448q-2 -4 -4 -4h-107q-4 0 -4 4v448q0 3 4 3h107zM130 557q-2 -3 -4 -3h-67q-4 0 -4 3l60 164q1 3 5 3h66q4 0 4 -3z" />
    <glyph glyph-name="icircumflex" unicode="&#xee;" horiz-adv-x="300" 
d="M203 455q2 0 4 -3v-448q-2 -4 -4 -4h-107q-4 0 -4 4v448q0 3 4 3h107zM18 576q0 4 1 5q0 1 1 2l126 125q0 1 2 1.5t3 0.5h2q3 0 5 -2l126 -125q1 -2 2 -3.5t0 -4.5v-20v-1q0 -1 -2 -1h-49q-2 0 -5 3l-72 72q-3 3 -6 3h-1q-1 -1 -2 -1q-3 -3 -3 -2l-73 -73q-2 -2 -3 -2
h-50q-1 0 -1 1l-1 1v21z" />
    <glyph glyph-name="idieresis" unicode="&#xef;" horiz-adv-x="280" 
d="M197 455q2 0 4 -3v-448q-2 -4 -4 -4h-107q-4 0 -4 4v448q0 3 4 3h107zM109 638q1 0 3 -3v-77l-3 -3h-92q-3 0 -3 3v77q0 3 3 3h92zM273 638q3 0 3 -3v-77q0 -3 -3 -3h-92q-3 0 -3 3v77q0 3 3 3h92z" />
    <glyph glyph-name="AE" unicode="&#xc6;" horiz-adv-x="871" 
d="M581 618q0 -4 -3 -4h-169v-182h149q4 0 4 -4v-73q0 -3 -4 -3h-149v-260h161q4 0 4 -3v-86q0 -3 -4 -3h-164q-1 0 -1.5 -0.5t-1.5 -0.5h-103q-3 0 -3 3v283h-124v-283q0 -3 -4 -3h-103q-3 0 -3 3v607q0 19 7 36t20 29.5t30 20.5t37 8h143q1 0 1.5 0.5t1.5 0.5h275
q3 0 3 -4v-82zM297 375v234q0 3 -3 3v1h-118v-1q-3 0 -3 -3v-234h124z" />
    <glyph glyph-name="cedilla" unicode="&#xb8;" horiz-adv-x="222" 
d="M135 -41v-3l6 -5.5l13 -12l13 -12l6 -5.5q1 -1 1 -4v-78q0 -17 -10.5 -28.5t-28.5 -11.5h-4h-42q-17 0 -28 12t-11 28v40h42v-40q0 -2 2 -2h37q2 0 2 2v60v1q0 1 -0.5 1t-0.5 1l-6 4.5t-13.5 11.5l-15.5 14.5t-12 13.5v6v45v2h47q2 0 2 -2z" />
    <glyph glyph-name="Agrave" unicode="&#xc0;" horiz-adv-x="457" 
d="M301 703q18 0 35.5 -7.5t30.5 -20t20.5 -30t7.5 -36.5v-607q0 -3 -4 -3h-103q-3 0 -3 3v283h-111v-283q0 -3 -4 -3h-103q-3 0 -3 3v607q0 19 7 36t20 29.5t30 20.5t37 8h143zM285 375v234q0 3 -3 3v1h-105v-1q-3 0 -3 -3v-234h111zM152 932q0 3 4 3h66q3 0 5 -3l60 -164
q0 -3 -4 -3h-67q-3 0 -4 3z" />
    <glyph glyph-name="Aacute" unicode="&#xc1;" horiz-adv-x="457" 
d="M301 703q18 0 35.5 -7.5t30.5 -20t20.5 -30t7.5 -36.5v-607q0 -3 -4 -3h-103q-3 0 -3 3v283h-111v-283q0 -3 -4 -3h-103q-3 0 -3 3v607q0 19 7 36t20 29.5t30 20.5t37 8h143zM285 375v234q0 3 -3 3v1h-105v-1q-3 0 -3 -3v-234h111zM242 766q-2 -3 -4 -3h-67q-4 0 -4 3
l60 164q1 3 5 3h66q4 0 4 -3z" />
    <glyph glyph-name="Adieresis" unicode="&#xc4;" horiz-adv-x="457" 
d="M301 703q18 0 35.5 -7.5t30.5 -20t20.5 -30t7.5 -36.5v-607q0 -3 -4 -3h-103q-3 0 -3 3v283h-111v-283q0 -3 -4 -3h-103q-3 0 -3 3v607q0 19 7 36t20 29.5t30 20.5t37 8h143zM285 375v234q0 3 -3 3v1h-105v-1q-3 0 -3 -3v-234h111zM188 848q1 0 3 -3v-77l-3 -3h-92
q-3 0 -3 3v77q0 3 3 3h92zM352 848q3 0 3 -3v-77q0 -3 -3 -3h-92q-3 0 -3 3v77q0 3 3 3h92z" />
    <glyph glyph-name="Aring" unicode="&#xc5;" horiz-adv-x="457" 
d="M301 703q18 0 35.5 -7.5t30.5 -20t20.5 -30t7.5 -36.5v-607q0 -3 -4 -3h-103q-3 0 -3 3v283h-111v-283q0 -3 -4 -3h-103q-3 0 -3 3v607q0 19 7 36t20 29.5t30 20.5t37 8h143zM285 375v234q0 3 -3 3v1h-105v-1q-3 0 -3 -3v-234h111zM255 884q0 2 -2 2h-55q-2 0 -2 -2v-70
q0 -2 2 -2h12h26h17q2 0 2 2v70zM255 934q23 0 39.5 -17t16.5 -41v-54q0 -24 -16.5 -41t-39.5 -17h-60q-23 0 -39.5 17t-16.5 41v54q0 24 16.5 41t39.5 17h60z" />
    <glyph glyph-name="Ccedilla" unicode="&#xc7;" horiz-adv-x="428" 
d="M282 704q39 0 65 -27.5t26 -66.5v-141q0 -3 -4 -3h-97q-3 0 -3 3v141q0 4 -3 4h-92q-3 0 -3 -4v-517q0 -3 3 -3h92q3 0 3 3v183q0 4 4 4h97q3 0 3 -4v-182q0 -39 -26 -66.5t-65 -27.5h1h-129h1q-20 0 -37 7.5t-29.5 20t-20 29.5t-7.5 37v516q0 19 7.5 36.5t20 30t29.5 20
t37 7.5h-1h129h-1zM248 -41v-3l6 -5.5l13 -12l13 -12l6 -5.5q1 -1 1 -4v-78q0 -17 -10.5 -28.5t-28.5 -11.5h-4h-42q-17 0 -28 12t-11 28v40h42v-40q0 -2 2 -2h37q2 0 2 2v60v1q0 1 -0.5 1t-0.5 1l-6 4.5t-13.5 11.5l-15.5 14.5t-12 13.5v6v45v2h47q2 0 2 -2z" />
    <glyph glyph-name="Egrave" unicode="&#xc8;" horiz-adv-x="414" 
d="M348 618q0 -4 -3 -4h-169v-182h149q4 0 4 -4v-73q0 -3 -4 -3h-149v-260h161q4 0 4 -3v-86q0 -3 -4 -3h-267q-4 0 -4 3v697q0 4 4 4h275q3 0 3 -4v-82zM129 932q0 3 4 3h66q3 0 5 -3l60 -164q0 -3 -4 -3h-67q-3 0 -4 3z" />
    <glyph glyph-name="Eacute" unicode="&#xc9;" horiz-adv-x="414" 
d="M348 618q0 -4 -3 -4h-169v-182h149q4 0 4 -4v-73q0 -3 -4 -3h-149v-260h161q4 0 4 -3v-86q0 -3 -4 -3h-267q-4 0 -4 3v697q0 4 4 4h275q3 0 3 -4v-82zM242 766q-2 -3 -4 -3h-67q-4 0 -4 3l60 164q1 3 5 3h66q4 0 4 -3z" />
    <glyph glyph-name="Ecircumflex" unicode="&#xca;" horiz-adv-x="414" 
d="M348 618q0 -4 -3 -4h-169v-182h149q4 0 4 -4v-73q0 -3 -4 -3h-149v-260h161q4 0 4 -3v-86q0 -3 -4 -3h-267q-4 0 -4 3v697q0 4 4 4h275q3 0 3 -4v-82zM83 796q0 4 1 5q0 1 1 2l126 125q0 1 2 1.5t3 0.5h2q3 0 5 -2l126 -125q1 -2 2 -3.5t0 -4.5v-20v-1q0 -1 -2 -1h-49
q-2 0 -5 3l-72 72q-3 3 -6 3h-1q-1 -1 -2 -1q-3 -3 -3 -2l-73 -73q-2 -2 -3 -2h-50q-1 0 -1 1l-1 1v21z" />
    <glyph glyph-name="Igrave" unicode="&#xcc;" horiz-adv-x="345" 
d="M376 704q3 0 3 -4v-82q0 -4 -4 -4h-78v-522h78q4 0 4 -4v-84q0 -4 -3 -4h-269q-3 0 -3 4v84q0 4 3 4h80v522h-80q-3 0 -3 4v82q0 4 3 4h269zM164 932q0 3 4 3h66q3 0 5 -3l60 -164q0 -3 -4 -3h-67q-3 0 -4 3z" />
    <glyph glyph-name="Iacute" unicode="&#xcd;" horiz-adv-x="345" 
d="M376 704q3 0 3 -4v-82q0 -4 -4 -4h-78v-522h78q4 0 4 -4v-84q0 -4 -3 -4h-269q-3 0 -3 4v84q0 4 3 4h80v522h-80q-3 0 -3 4v82q0 4 3 4h269zM242 766q-2 -3 -4 -3h-67q-4 0 -4 3l60 164q1 3 5 3h66q4 0 4 -3z" />
    <glyph glyph-name="Icircumflex" unicode="&#xce;" horiz-adv-x="345" 
d="M365 704q3 0 3 -4v-82q0 -4 -4 -4h-78v-522h78q4 0 4 -4v-84q0 -4 -3 -4h-269q-3 0 -3 4v84q0 4 3 4h80v522h-80q-3 0 -3 4v82q0 4 3 4h269zM97 788q0 4 1 5q0 1 1 2l126 125q0 1 2 1.5t3 0.5h2q3 0 5 -2l126 -125q1 -2 2 -3.5t0 -4.5v-20v-1q0 -1 -2 -1h-49q-2 0 -5 3
l-72 72q-3 3 -6 3h-1q-1 -1 -2 -1q-3 -3 -3 -2l-73 -73q-2 -2 -3 -2h-50q-1 0 -1 1l-1 1v21z" />
    <glyph glyph-name="Idieresis" unicode="&#xcf;" horiz-adv-x="345" 
d="M376 704q3 0 3 -4v-82q0 -4 -4 -4h-78v-522h78q4 0 4 -4v-84q0 -4 -3 -4h-269q-3 0 -3 4v84q0 4 3 4h80v522h-80q-3 0 -3 4v82q0 4 3 4h269zM208 848q1 0 3 -3v-77l-3 -3h-92q-3 0 -3 3v77q0 3 3 3h92zM372 848q3 0 3 -3v-77q0 -3 -3 -3h-92q-3 0 -3 3v77q0 3 3 3h92z
" />
    <glyph glyph-name="Eth" unicode="&#xd0;" horiz-adv-x="447" 
d="M387 135q0 -20 -6.5 -43.5t-23 -43.5t-45.5 -34t-74 -14h-169q-3 0 -3 3v338h-46q-3 1 -3 4v72q0 4 3 4h46v279q0 4 3 4h158q45 0 76 -14t49.5 -35t26.5 -45t8 -43v-432zM176 341v-246q0 -3 3 -3h57q40 0 40 46q0 111 0.5 183.5t0.5 117.5v67.5v33t-0.5 14.5t-0.5 13
q0 25 -16 36t-35 11h-46q-3 0 -3 -3v-190h52q3 0 3 -4v-72q0 -3 -3 -4h-52z" />
    <glyph glyph-name="Ograve" unicode="&#xd2;" 
d="M290 611q0 3 -3 3h-112q-4 0 -4 -3v-517q0 -2 4 -4h112q3 1 3 4v517zM305 704q19 0 36.5 -7.5t30.5 -20t20.5 -30t7.5 -36.5v-516q0 -20 -7.5 -37t-20.5 -29.5t-30.5 -20t-36.5 -7.5h1h-152h1q-20 0 -37 7.5t-29.5 20t-20 29.5t-7.5 37v516q0 19 7.5 36.5t20 30t29.5 20
t37 7.5h150zM164 932q0 3 4 3h66q3 0 5 -3l60 -164q0 -3 -4 -3h-67q-3 0 -4 3z" />
    <glyph glyph-name="Oacute" unicode="&#xd3;" 
d="M290 611q0 3 -3 3h-112q-4 0 -4 -3v-517q0 -2 4 -4h112q3 1 3 4v517zM305 704q19 0 36.5 -7.5t30.5 -20t20.5 -30t7.5 -36.5v-516q0 -20 -7.5 -37t-20.5 -29.5t-30.5 -20t-36.5 -7.5h1h-152h1q-20 0 -37 7.5t-29.5 20t-20 29.5t-7.5 37v516q0 19 7.5 36.5t20 30t29.5 20
t37 7.5h150zM242 766q-2 -3 -4 -3h-67q-4 0 -4 3l60 164q1 3 5 3h66q4 0 4 -3z" />
    <glyph glyph-name="Ocircumflex" unicode="&#xd4;" 
d="M290 611q0 3 -3 3h-112q-4 0 -4 -3v-517q0 -2 4 -4h112q3 1 3 4v517zM305 704q19 0 36.5 -7.5t30.5 -20t20.5 -30t7.5 -36.5v-516q0 -20 -7.5 -37t-20.5 -29.5t-30.5 -20t-36.5 -7.5h1h-152h1q-20 0 -37 7.5t-29.5 20t-20 29.5t-7.5 37v516q0 19 7.5 36.5t20 30t29.5 20
t37 7.5h150zM97 788q0 4 1 5q0 1 1 2l126 125q0 1 2 1.5t3 0.5h2q3 0 5 -2l126 -125q1 -2 2 -3.5t0 -4.5v-20v-1q0 -1 -2 -1h-49q-2 0 -5 3l-72 72q-3 3 -6 3h-1q-1 -1 -2 -1q-3 -3 -3 -2l-73 -73q-2 -2 -3 -2h-50q-1 0 -1 1l-1 1v21z" />
    <glyph glyph-name="Otilde" unicode="&#xd5;" 
d="M290 611q0 3 -3 3h-112q-4 0 -4 -3v-517q0 -2 4 -4h112q3 1 3 4v517zM305 704q19 0 36.5 -7.5t30.5 -20t20.5 -30t7.5 -36.5v-516q0 -20 -7.5 -37t-20.5 -29.5t-30.5 -20t-36.5 -7.5h1h-152h1q-20 0 -37 7.5t-29.5 20t-20 29.5t-7.5 37v516q0 19 7.5 36.5t20 30t29.5 20
t37 7.5h150zM181 815q-3 3 -8 0l-87 -39q-3 0 -3 4v60q0 2 2.5 3t1.5 1l33 17q12 7 22.5 12t11.5 6q10 4 22.5 3.5t18.5 -3.5l82 -45q3 -2 6 0l91 40q3 0 3 -4v-60q0 -2 -4 -4l-65 -35q-20 -11 -44 0z" />
    <glyph glyph-name="Odieresis" unicode="&#xd6;" 
d="M290 611q0 3 -3 3h-112q-4 0 -4 -3v-517q0 -2 4 -4h112q3 1 3 4v517zM305 704q19 0 36.5 -7.5t30.5 -20t20.5 -30t7.5 -36.5v-516q0 -20 -7.5 -37t-20.5 -29.5t-30.5 -20t-36.5 -7.5h1h-152h1q-20 0 -37 7.5t-29.5 20t-20 29.5t-7.5 37v516q0 19 7.5 36.5t20 30t29.5 20
t37 7.5h150zM188 848q1 0 3 -3v-77l-3 -3h-92q-3 0 -3 3v77q0 3 3 3h92zM352 848q3 0 3 -3v-77q0 -3 -3 -3h-92q-3 0 -3 3v77q0 3 3 3h92z" />
    <glyph glyph-name="Ugrave" unicode="&#xd9;" 
d="M383 704q4 0 4 -3v-606q0 -20 -7.5 -37t-20.5 -30t-30.5 -20.5t-36.5 -7.5h-133q-20 0 -37 7.5t-30 20.5t-20.5 30t-7.5 37v606q0 3 4 3h103q3 0 3 -3v-605q0 -4 4 -4h95q4 0 4 4v605q0 3 3 3h103zM164 932q0 3 4 3h66q3 0 5 -3l60 -164q0 -3 -4 -3h-67q-3 0 -4 3z" />
    <glyph glyph-name="Uacute" unicode="&#xda;" 
d="M383 704q4 0 4 -3v-606q0 -20 -7.5 -37t-20.5 -30t-30.5 -20.5t-36.5 -7.5h-133q-20 0 -37 7.5t-30 20.5t-20.5 30t-7.5 37v606q0 3 4 3h103q3 0 3 -3v-605q0 -4 4 -4h95q4 0 4 4v605q0 3 3 3h103zM242 766q-2 -3 -4 -3h-67q-4 0 -4 3l60 164q1 3 5 3h66q4 0 4 -3z" />
    <glyph glyph-name="Ucircumflex" unicode="&#xdb;" 
d="M383 704q4 0 4 -3v-606q0 -20 -7.5 -37t-20.5 -30t-30.5 -20.5t-36.5 -7.5h-133q-20 0 -37 7.5t-30 20.5t-20.5 30t-7.5 37v606q0 3 4 3h103q3 0 3 -3v-605q0 -4 4 -4h95q4 0 4 4v605q0 3 3 3h103zM83 796q0 4 1 5q0 1 1 2l126 125q0 1 2 1.5t3 0.5h2q3 0 5 -2l126 -125
q1 -2 2 -3.5t0 -4.5v-20v-1q0 -1 -2 -1h-49q-2 0 -5 3l-72 72q-3 3 -6 3h-1q-1 -1 -2 -1q-3 -3 -3 -2l-73 -73q-2 -2 -3 -2h-50q-1 0 -1 1l-1 1v21z" />
    <glyph glyph-name="Udieresis" unicode="&#xdc;" 
d="M383 704q4 0 4 -3v-606q0 -20 -7.5 -37t-20.5 -30t-30.5 -20.5t-36.5 -7.5h-133q-20 0 -37 7.5t-30 20.5t-20.5 30t-7.5 37v606q0 3 4 3h103q3 0 3 -3v-605q0 -4 4 -4h95q4 0 4 4v605q0 3 3 3h103zM188 848q1 0 3 -3v-77l-3 -3h-92q-3 0 -3 3v77q0 3 3 3h92zM352 848
q3 0 3 -3v-77q0 -3 -3 -3h-92q-3 0 -3 3v77q0 3 3 3h92z" />
    <glyph glyph-name="Yacute" unicode="&#xdd;" horiz-adv-x="403" 
d="M356 703q3 0 3 -3v-287q0 -4 -9 -19.5t-23 -35.5t-32.5 -42t-37.5 -38v-275q0 -3 -3 -4h-102q-4 0 -4 4v275q-19 15 -37.5 36.5t-32.5 42t-23 36t-9 20.5v287q0 3 4 3h94q3 0 3 -3v-272q0 -6 6.5 -15.5t15.5 -19t18.5 -16.5t15.5 -7t15 7.5t18 17.5t15.5 19.5t6.5 13.5
v272q0 3 4 3h94zM232 766q-2 -3 -4 -3h-67q-4 0 -4 3l60 164q1 3 5 3h66q4 0 4 -3z" />
    <glyph glyph-name="Thorn" unicode="&#xde;" horiz-adv-x="833" 
d="M157 703q2 0 4 -3v-206h125q39 0 65.5 -27.5t26.5 -66.5v-141q0 -20 -7 -37t-19.5 -29.5t-29 -20t-35.5 -7.5h-126v-160q-2 -4 -4 -4h-97q-4 0 -4 4v695q0 3 4 3h97zM273 403q0 3 -3 3h-109v-151h109q3 1 3 4v144z" />
    <glyph glyph-name="germandbls" unicode="&#xdf;" horiz-adv-x="489" 
d="M194 3q0 -3 -3 -3h-99q-3 0 -3 3v410h-36q-3 1 -3 4v72q0 4 3 4h36v116q0 39 27 66.5t66 28.5h131q19 0 36.5 -7.5t30 -20t20 -30t7.5 -37.5v-57v-1v-73q0 -24 -9.5 -39.5t-22 -25t-25.5 -13.5t-20 -5q7 0 20.5 -1.5t27 -10t23.5 -25t10 -45.5v-219q0 -40 -27 -67
t-67 -27h-44v91h35q3 0 3 3v178q-1 23 -7 41q-5 16 -17.5 29t-35.5 13v80q7 0 16.5 1.5t18.5 9.5t15 23.5t6 44.5v99q0 3 -3 3h-107q-3 0 -3 -3v-610z" />
    <glyph glyph-name="agrave" unicode="&#xe0;" horiz-adv-x="417" 
d="M277 281v132q0 3 -3 3h-109q-3 0 -3 -3v-60q0 -4 -4 -4h-93q-3 0 -3 4v47q0 19 7 36.5t19 30t28.5 20t35.5 7.5h136q19 0 36.5 -7.5t30 -20t20 -30t7.5 -36.5v-397q0 -1 -1 -2l-1 -1h-238q-19 0 -35.5 7.5t-28.5 20.5t-19 30t-7 36v93q0 19 7 36.5t19 30t28.5 20
t35.5 7.5h135zM277 210h-122q-3 0 -3 -3v-121q0 -4 3 -4h119q3 0 3 4v124zM125 721q0 3 4 3h66q3 0 5 -3l60 -164q0 -3 -4 -3h-67q-3 0 -4 3z" />
    <glyph glyph-name="aacute" unicode="&#xe1;" horiz-adv-x="417" 
d="M277 281v132q0 3 -3 3h-109q-3 0 -3 -3v-60q0 -4 -4 -4h-93q-3 0 -3 4v47q0 19 7 36.5t19 30t28.5 20t35.5 7.5h136q19 0 36.5 -7.5t30 -20t20 -30t7.5 -36.5v-397q0 -1 -1 -2l-1 -1h-238q-19 0 -35.5 7.5t-28.5 20.5t-19 30t-7 36v93q0 19 7 36.5t19 30t28.5 20
t35.5 7.5h135zM277 210h-122q-3 0 -3 -3v-121q0 -4 3 -4h119q3 0 3 4v124zM239 557q-2 -3 -4 -3h-67q-4 0 -4 3l60 164q1 3 5 3h66q4 0 4 -3z" />
    <glyph glyph-name="acircumflex" unicode="&#xe2;" horiz-adv-x="417" 
d="M277 281v132q0 3 -3 3h-109q-3 0 -3 -3v-60q0 -4 -4 -4h-93q-3 0 -3 4v47q0 19 7 36.5t19 30t28.5 20t35.5 7.5h136q19 0 36.5 -7.5t30 -20t20 -30t7.5 -36.5v-397q0 -1 -1 -2l-1 -1h-238q-19 0 -35.5 7.5t-28.5 20.5t-19 30t-7 36v93q0 19 7 36.5t19 30t28.5 20
t35.5 7.5h135zM277 210h-122q-3 0 -3 -3v-121q0 -4 3 -4h119q3 0 3 4v124zM82 576q0 4 1 5q0 1 1 2l126 125q0 1 2 1.5t3 0.5h2q3 0 5 -2l126 -125q1 -2 2 -3.5t0 -4.5v-20v-1q0 -1 -2 -1h-49q-2 0 -5 3l-72 72q-3 3 -6 3h-1q-1 -1 -2 -1q-3 -3 -3 -2l-73 -73q-2 -2 -3 -2
h-50q-1 0 -1 1l-1 1v21z" />
    <glyph glyph-name="adieresis" unicode="&#xe4;" horiz-adv-x="417" 
d="M277 281v132q0 3 -3 3h-109q-3 0 -3 -3v-60q0 -4 -4 -4h-93q-3 0 -3 4v47q0 19 7 36.5t19 30t28.5 20t35.5 7.5h136q19 0 36.5 -7.5t30 -20t20 -30t7.5 -36.5v-397q0 -1 -1 -2l-1 -1h-238q-19 0 -35.5 7.5t-28.5 20.5t-19 30t-7 36v93q0 19 7 36.5t19 30t28.5 20
t35.5 7.5h135zM277 210h-122q-3 0 -3 -3v-121q0 -4 3 -4h119q3 0 3 4v124zM169 638q1 0 3 -3v-77l-3 -3h-92q-3 0 -3 3v77q0 3 3 3h92zM333 638q3 0 3 -3v-77q0 -3 -3 -3h-92q-3 0 -3 3v77q0 3 3 3h92z" />
    <glyph glyph-name="aring" unicode="&#xe5;" horiz-adv-x="417" 
d="M277 281v132q0 3 -3 3h-109q-3 0 -3 -3v-60q0 -4 -4 -4h-93q-3 0 -3 4v47q0 19 7 36.5t19 30t28.5 20t35.5 7.5h136q19 0 36.5 -7.5t30 -20t20 -30t7.5 -36.5v-397q0 -1 -1 -2l-1 -1h-238q-19 0 -35.5 7.5t-28.5 20.5t-19 30t-7 36v93q0 19 7 36.5t19 30t28.5 20
t35.5 7.5h135zM277 210h-122q-3 0 -3 -3v-121q0 -4 3 -4h119q3 0 3 4v124zM235 674q0 2 -2 2h-55q-2 0 -2 -2v-70q0 -2 2 -2h12h26h17q2 0 2 2v70zM235 724q23 0 39.5 -17t16.5 -41v-54q0 -24 -16.5 -41t-39.5 -17h-60q-23 0 -39.5 17t-16.5 41v54q0 24 16.5 41t39.5 17h60z
" />
    <glyph glyph-name="ccedilla" unicode="&#xe7;" horiz-adv-x="222" 
d="M135 -41v-3l6 -5.5l13 -12l13 -12l6 -5.5q1 -1 1 -4v-78q0 -17 -10.5 -28.5t-28.5 -11.5h-4h-42q-17 0 -28 12t-11 28v40h42v-40q0 -2 2 -2h37q2 0 2 2v60v1q0 1 -0.5 1t-0.5 1l-6 4.5t-13.5 11.5l-15.5 14.5t-12 13.5v6v45v2h47q2 0 2 -2z" />
    <glyph glyph-name="egrave" unicode="&#xe8;" horiz-adv-x="413" 
d="M288 494q19 0 35.5 -8t28.5 -20.5t19 -29.5t7 -36v-188q0 -3 -4 -3h-217v-128q0 -3 3 -3h115q3 0 3 3v61q0 4 4 4h93q3 0 3 -4v-48q0 -20 -7 -37t-19 -29.5t-28.5 -20t-35.5 -7.5h-142q-39 0 -66.5 27.5t-27.5 66.5v306q0 19 7.5 36.5t20 30t29.5 20t37 7.5h142zM157 281
h121v126q0 4 -3 4h-115q-3 0 -3 -4v-126zM125 721q0 3 4 3h66q3 0 5 -3l60 -164q0 -3 -4 -3h-67q-3 0 -4 3z" />
    <glyph glyph-name="eacute" unicode="&#xe9;" horiz-adv-x="413" 
d="M288 494q19 0 35.5 -8t28.5 -20.5t19 -29.5t7 -36v-188q0 -3 -4 -3h-217v-128q0 -3 3 -3h115q3 0 3 3v61q0 4 4 4h93q3 0 3 -4v-48q0 -20 -7 -37t-19 -29.5t-28.5 -20t-35.5 -7.5h-142q-39 0 -66.5 27.5t-27.5 66.5v306q0 19 7.5 36.5t20 30t29.5 20t37 7.5h142zM157 281
h121v126q0 4 -3 4h-115q-3 0 -3 -4v-126zM239 557q-2 -3 -4 -3h-67q-4 0 -4 3l60 164q1 3 5 3h66q4 0 4 -3z" />
    <glyph glyph-name="ecircumflex" unicode="&#xea;" horiz-adv-x="413" 
d="M288 494q19 0 35.5 -8t28.5 -20.5t19 -29.5t7 -36v-188q0 -3 -4 -3h-217v-128q0 -3 3 -3h115q3 0 3 3v61q0 4 4 4h93q3 0 3 -4v-48q0 -20 -7 -37t-19 -29.5t-28.5 -20t-35.5 -7.5h-142q-39 0 -66.5 27.5t-27.5 66.5v306q0 19 7.5 36.5t20 30t29.5 20t37 7.5h142zM157 281
h121v126q0 4 -3 4h-115q-3 0 -3 -4v-126zM82 576q0 4 1 5q0 1 1 2l126 125q0 1 2 1.5t3 0.5h2q3 0 5 -2l126 -125q1 -2 2 -3.5t0 -4.5v-20v-1q0 -1 -2 -1h-49q-2 0 -5 3l-72 72q-3 3 -6 3h-1q-1 -1 -2 -1q-3 -3 -3 -2l-73 -73q-2 -2 -3 -2h-50q-1 0 -1 1l-1 1v21z" />
    <glyph glyph-name="edieresis" unicode="&#xeb;" horiz-adv-x="413" 
d="M288 494q19 0 35.5 -8t28.5 -20.5t19 -29.5t7 -36v-188q0 -3 -4 -3h-217v-128q0 -3 3 -3h115q3 0 3 3v61q0 4 4 4h93q3 0 3 -4v-48q0 -20 -7 -37t-19 -29.5t-28.5 -20t-35.5 -7.5h-142q-39 0 -66.5 27.5t-27.5 66.5v306q0 19 7.5 36.5t20 30t29.5 20t37 7.5h142zM157 281
h121v126q0 4 -3 4h-115q-3 0 -3 -4v-126zM169 638q1 0 3 -3v-77l-3 -3h-92q-3 0 -3 3v77q0 3 3 3h92zM333 638q3 0 3 -3v-77q0 -3 -3 -3h-92q-3 0 -3 3v77q0 3 3 3h92z" />
    <glyph glyph-name="ograve" unicode="&#xf2;" horiz-adv-x="425" 
d="M270 408q0 3 -3 3h-106q-4 0 -4 -3v-320q0 -2 4 -4h106q3 1 3 4v320zM283 494q39 0 65.5 -27.5t26.5 -66.5v-306q0 -39 -26.5 -66.5t-65.5 -27.5h1h-142h1q-39 0 -65 27.5t-26 66.5v306q0 39 26 66.5t65 27.5h140zM125 721q0 3 4 3h66q3 0 5 -3l60 -164q0 -3 -4 -3h-67
q-3 0 -4 3z" />
    <glyph glyph-name="oacute" unicode="&#xf3;" horiz-adv-x="425" 
d="M270 408q0 3 -3 3h-106q-4 0 -4 -3v-320q0 -2 4 -4h106q3 1 3 4v320zM283 494q39 0 65.5 -27.5t26.5 -66.5v-306q0 -39 -26.5 -66.5t-65.5 -27.5h1h-142h1q-39 0 -65 27.5t-26 66.5v306q0 39 26 66.5t65 27.5h140zM239 557q-2 -3 -4 -3h-67q-4 0 -4 3l60 164q1 3 5 3h66
q4 0 4 -3z" />
    <glyph glyph-name="ocircumflex" unicode="&#xf4;" horiz-adv-x="425" 
d="M270 408q0 3 -3 3h-106q-4 0 -4 -3v-320q0 -2 4 -4h106q3 1 3 4v320zM283 494q39 0 65.5 -27.5t26.5 -66.5v-306q0 -39 -26.5 -66.5t-65.5 -27.5h1h-142h1q-39 0 -65 27.5t-26 66.5v306q0 39 26 66.5t65 27.5h140zM82 576q0 4 1 5q0 1 1 2l126 125q0 1 2 1.5t3 0.5h2
q3 0 5 -2l126 -125q1 -2 2 -3.5t0 -4.5v-20v-1q0 -1 -2 -1h-49q-2 0 -5 3l-72 72q-3 3 -6 3h-1q-1 -1 -2 -1q-3 -3 -3 -2l-73 -73q-2 -2 -3 -2h-50q-1 0 -1 1l-1 1v21z" />
    <glyph glyph-name="odieresis" unicode="&#xf6;" horiz-adv-x="425" 
d="M270 408q0 3 -3 3h-106q-4 0 -4 -3v-320q0 -2 4 -4h106q3 1 3 4v320zM283 494q39 0 65.5 -27.5t26.5 -66.5v-306q0 -39 -26.5 -66.5t-65.5 -27.5h1h-142h1q-39 0 -65 27.5t-26 66.5v306q0 39 26 66.5t65 27.5h140zM177 638q1 0 3 -3v-77l-3 -3h-92q-3 0 -3 3v77q0 3 3 3
h92zM341 638q3 0 3 -3v-77q0 -3 -3 -3h-92q-3 0 -3 3v77q0 3 3 3h92z" />
    <glyph glyph-name="ugrave" unicode="&#xf9;" horiz-adv-x="446" 
d="M148 0h1q-20 0 -37 7.5t-29.5 20t-20 30t-7.5 37.5v396q0 3 3 3h99q3 0 3 -3v-403q0 -3 3 -3h120q3 0 3 3v403q0 3 3 3h99q3 0 3 -3v-396q0 -20 -7.5 -37.5t-20 -30t-30 -20t-36.5 -7.5h-149zM125 721q0 3 4 3h66q3 0 5 -3l60 -164q0 -3 -4 -3h-67q-3 0 -4 3z" />
    <glyph glyph-name="uacute" unicode="&#xfa;" horiz-adv-x="446" 
d="M148 0h1q-20 0 -37 7.5t-29.5 20t-20 30t-7.5 37.5v396q0 3 3 3h99q3 0 3 -3v-403q0 -3 3 -3h120q3 0 3 3v403q0 3 3 3h99q3 0 3 -3v-396q0 -20 -7.5 -37.5t-20 -30t-30 -20t-36.5 -7.5h-149zM239 557q-2 -3 -4 -3h-67q-4 0 -4 3l60 164q1 3 5 3h66q4 0 4 -3z" />
    <glyph glyph-name="ucircumflex" unicode="&#xfb;" horiz-adv-x="446" 
d="M148 0h1q-20 0 -37 7.5t-29.5 20t-20 30t-7.5 37.5v396q0 3 3 3h99q3 0 3 -3v-403q0 -3 3 -3h120q3 0 3 3v403q0 3 3 3h99q3 0 3 -3v-396q0 -20 -7.5 -37.5t-20 -30t-30 -20t-36.5 -7.5h-149zM82 576q0 4 1 5q0 1 1 2l126 125q0 1 2 1.5t3 0.5h2q3 0 5 -2l126 -125
q1 -2 2 -3.5t0 -4.5v-20v-1q0 -1 -2 -1h-49q-2 0 -5 3l-72 72q-3 3 -6 3h-1q-1 -1 -2 -1q-3 -3 -3 -2l-73 -73q-2 -2 -3 -2h-50q-1 0 -1 1l-1 1v21z" />
    <glyph glyph-name="udieresis" unicode="&#xfc;" horiz-adv-x="446" 
d="M148 0h1q-20 0 -37 7.5t-29.5 20t-20 30t-7.5 37.5v396q0 3 3 3h99q3 0 3 -3v-403q0 -3 3 -3h120q3 0 3 3v403q0 3 3 3h99q3 0 3 -3v-396q0 -20 -7.5 -37.5t-20 -30t-30 -20t-36.5 -7.5h-149zM188 638q1 0 3 -3v-77l-3 -3h-92q-3 0 -3 3v77q0 3 3 3h92zM352 638q3 0 3 -3
v-77q0 -3 -3 -3h-92q-3 0 -3 3v77q0 3 3 3h92z" />
    <glyph glyph-name="yacute" unicode="&#xfd;" horiz-adv-x="428" 
d="M368 -105q0 -20 -7.5 -37t-20 -29.5t-30 -20t-36.5 -7.5h-128q-19 0 -35.5 7.5t-28.5 20t-19 29.5t-7 37v44q0 4 3 4h93q4 0 4 -4v-50q0 -3 3 -3h101q3 0 3 3v112h-116q-37 3 -63.5 28.5t-27.5 62.5h-1v398h1q0 4 3 4h98q4 0 4 -4l-1 -406h103v406h1q0 4 3 4h98q4 0 4 -4
h1l-2 -406v-189zM239 557q-2 -3 -4 -3h-67q-4 0 -4 3l60 164q1 3 5 3h66q4 0 4 -3z" />
    <glyph glyph-name="thorn" unicode="&#xfe;" horiz-adv-x="189" 
d="M157 728q2 0 4 -3v-231h125q39 0 65.5 -27.5t26.5 -66.5v-306q0 -20 -7 -37t-19.5 -29.5t-29 -20t-35.5 -7.5h-126v-160q-2 -4 -4 -4h-97q-4 0 -4 4v885q0 3 4 3h97zM273 403q0 3 -3 3h-109v-316h109q3 1 3 4v309z" />
    <glyph glyph-name="ydieresis" unicode="&#xff;" horiz-adv-x="428" 
d="M368 -105q0 -20 -7.5 -37t-20 -29.5t-30 -20t-36.5 -7.5h-128q-19 0 -35.5 7.5t-28.5 20t-19 29.5t-7 37v44q0 4 3 4h93q4 0 4 -4v-50q0 -3 3 -3h101q3 0 3 3v112h-116q-37 3 -63.5 28.5t-27.5 62.5h-1v398h1q0 4 3 4h98q4 0 4 -4l-1 -406h103v406h1q0 4 3 4h98q4 0 4 -4
h1l-2 -406v-189zM169 638q1 0 3 -3v-77l-3 -3h-92q-3 0 -3 3v77q0 3 3 3h92zM333 638q3 0 3 -3v-77q0 -3 -3 -3h-92q-3 0 -3 3v77q0 3 3 3h92z" />
    <glyph glyph-name="Edieresis" unicode="&#xcb;" horiz-adv-x="414" 
d="M348 618q0 -4 -3 -4h-169v-182h149q4 0 4 -4v-73q0 -3 -4 -3h-149v-260h161q4 0 4 -3v-86q0 -3 -4 -3h-267q-4 0 -4 3v697q0 4 4 4h275q3 0 3 -4v-82zM170 848q1 0 3 -3v-77l-3 -3h-92q-3 0 -3 3v77q0 3 3 3h92zM334 848q3 0 3 -3v-77q0 -3 -3 -3h-92q-3 0 -3 3v77
q0 3 3 3h92z" />
    <glyph glyph-name="asciicircum" unicode="^" horiz-adv-x="372" 
d="M51 587q-1 2 1 4l1 1l126 125q0 1 2 1.5t3 0.5h2q3 0 5 -2l126 -125l1 -1q1 -1 1 -4l1 -23l-1 -1q0 -1 -1 -1h-53q-1 0 -1 2l-73 73q-3 3 -6 3h-1q-1 -1 -2 -1q-3 -3 -3 -2l-73 -73q0 -2 -1 -2h-53q-1 0 -1 1l-1 1z" />
    <glyph glyph-name="Acircumflex" unicode="&#xc2;" horiz-adv-x="457" 
d="M301 703q18 0 35.5 -7.5t30.5 -20t20.5 -30t7.5 -36.5v-607q0 -3 -4 -3h-103q-3 0 -3 3v283h-111v-283q0 -3 -4 -3h-103q-3 0 -3 3v607q0 19 7 36t20 29.5t30 20.5t37 8h143zM285 375v234q0 3 -3 3v1h-105v-1q-3 0 -3 -3v-234h111zM97 788q0 4 1 5q0 1 1 2l126 125
q0 1 2 1.5t3 0.5h2q3 0 5 -2l126 -125q1 -2 2 -3.5t0 -4.5v-20v-1q0 -1 -2 -1h-49q-2 0 -5 3l-72 72q-3 3 -6 3h-1q-1 -1 -2 -1q-3 -3 -3 -2l-73 -73q-2 -2 -3 -2h-50q-1 0 -1 1l-1 1v21z" />
    <glyph glyph-name="Ntilde" unicode="&#xd1;" horiz-adv-x="468" 
d="M312 704q19 0 36.5 -7.5t30 -20t20 -30t7.5 -37.5v-606q0 -3 -3 -3h-104q-3 0 -3 3v608q0 3 -3 3h-116q-3 0 -3 -3v-608q0 -3 -3 -3h-104q-3 0 -3 3v606q0 20 7.5 37.5t20 30t29.5 20t37 7.5h-1h155zM185 812q-3 3 -8 0l-87 -39q-3 0 -3 4v60q0 2 2.5 3t1.5 1l33 17
q12 7 22.5 12t11.5 6q10 4 22.5 3.5t18.5 -3.5l82 -45q3 -2 6 0l91 40q3 0 3 -4v-60q0 -2 -4 -4l-65 -35q-20 -11 -44 0z" />
    <glyph glyph-name="atilde" unicode="&#xe3;" horiz-adv-x="417" 
d="M277 281v132q0 3 -3 3h-109q-3 0 -3 -3v-60q0 -4 -4 -4h-93q-3 0 -3 4v47q0 19 7 36.5t19 30t28.5 20t35.5 7.5h136q19 0 36.5 -7.5t30 -20t20 -30t7.5 -36.5v-397q0 -1 -1 -2l-1 -1h-238q-19 0 -35.5 7.5t-28.5 20.5t-19 30t-7 36v93q0 19 7 36.5t19 30t28.5 20
t35.5 7.5h135zM277 210h-122q-3 0 -3 -3v-121q0 -4 3 -4h119q3 0 3 4v124zM159 603q-3 3 -8 0l-87 -39q-3 0 -3 4v60q0 2 2.5 3t1.5 1l33 17q12 7 22.5 12t11.5 6q10 4 22.5 3.5t18.5 -3.5l82 -45q3 -2 6 0l91 40q3 0 3 -4v-60q0 -2 -4 -4l-65 -35q-20 -11 -44 0z" />
    <glyph glyph-name="ntilde" unicode="&#xf1;" horiz-adv-x="446" 
d="M297 494q19 0 36.5 -7.5t30 -20t20 -30t7.5 -37.5v-396q0 -3 -3 -3h-99q-3 0 -3 3v400q0 3 -3 3h-120q-3 0 -3 -3v-400q0 -3 -3 -3h-99q-3 0 -3 3v396q0 20 7.5 37.5t20 30t29.5 20t37 7.5h-1h149zM174 563q-3 3 -8 0l-87 -39q-3 0 -3 4v60q0 2 2.5 3t1.5 1l33 17
q12 7 22.5 12t11.5 6q10 4 22.5 3.5t18.5 -3.5l82 -45q3 -2 6 0l91 40q3 0 3 -4v-60q0 -2 -4 -4l-65 -35q-20 -11 -44 0z" />
    <glyph glyph-name="otilde" unicode="&#xf5;" horiz-adv-x="425" 
d="M270 408q0 3 -3 3h-106q-4 0 -4 -3v-320q0 -2 4 -4h106q3 1 3 4v320zM283 494q39 0 65.5 -27.5t26.5 -66.5v-306q0 -39 -26.5 -66.5t-65.5 -27.5h1h-142h1q-39 0 -65 27.5t-26 66.5v306q0 39 26 66.5t65 27.5h140zM163 622q-3 3 -8 0l-87 -39q-3 0 -3 4v60q0 2 2.5 3
t1.5 1l33 17q12 7 22.5 12t11.5 6q10 4 22.5 3.5t18.5 -3.5l82 -45q3 -2 6 0l91 40q3 0 3 -4v-60q0 -2 -4 -4l-65 -35q-20 -11 -44 0z" />
    <glyph glyph-name="Atilde" unicode="&#xc3;" horiz-adv-x="457" 
d="M301 703q18 0 35.5 -7.5t30.5 -20t20.5 -30t7.5 -36.5v-607q0 -3 -4 -3h-103q-3 0 -3 3v283h-111v-283q0 -3 -4 -3h-103q-3 0 -3 3v607q0 19 7 36t20 29.5t30 20.5t37 8h143zM285 375v234q0 3 -3 3v1h-105v-1q-3 0 -3 -3v-234h111zM179 830q-3 3 -8 0l-87 -39q-3 0 -3 4
v60q0 2 2.5 3t1.5 1l33 17q12 7 22.5 12t11.5 6q10 4 22.5 3.5t18.5 -3.5l82 -45q3 -2 6 0l91 40q3 0 3 -4v-60q0 -2 -4 -4l-65 -35q-20 -11 -44 0z" />
    <glyph glyph-name="A" unicode="A" horiz-adv-x="459" 
d="M301 703q18 0 35.5 -7.5t30.5 -20t20.5 -30t7.5 -36.5v-607q0 -3 -4 -3h-103q-3 0 -3 3v283h-111v-283q0 -3 -4 -3h-103q-3 0 -3 3v607q0 19 7 36t20 29.5t30 20.5t37 8h143zM285 375v234q0 3 -3 3v1h-105v-1q-3 0 -3 -3v-234h111z" />
    <glyph glyph-name="_0141" horiz-adv-x="0" 
 />
    <glyph glyph-name="_0007" horiz-adv-x="0" 
 />
    <glyph glyph-name="fi" unicode="&#xfb01;" horiz-adv-x="635" 
d="M432 455q2 0 4 -3v-448q-2 -4 -4 -4h-87q-4 0 -4 4v448q0 3 4 3h87zM347 726q19 0 36.5 -7.5t30 -20t20 -30t7.5 -37.5v-54q0 -2 -7 -2.5t-9 -0.5h-82q-3 0 -3 3v61q0 3 -3 3h-88q-3 0 -3 -3v-634q0 -3 -3 -3h-95q-3 0 -3 3v627q0 20 7.5 37.5t20 30t29.5 20t37 7.5h-1
h109zM405 454q3 0 3 -4v-88q0 -3 -3 -4h-296q-3 1 -3 4v88q0 4 3 4h296z" />
    <glyph glyph-name="fl" unicode="&#xfb02;" horiz-adv-x="631" 
d="M284 454q3 0 3 -4v-88q0 -3 -3 -4h-87v-354q0 -3 -3 -3h-95q-3 0 -3 3v354h-36q-3 1 -3 4v88q0 4 3 4h36v177q0 39 27 66.5t66 28.5h136q35 0 61.5 -23t31.5 -58l1 -1v-9v-4v-627q-2 -4 -4 -4h-87q-4 0 -4 4v572v1v61q0 3 -3 3h-121q-3 0 -3 -3v-184h87v0z" />
    <glyph glyph-name="D" unicode="D" 
d="M276 138q0 111 0.5 183.5t0.5 117.5v67.5v33t-0.5 14.5t-0.5 13q0 25 -16 36t-35 11h-46q-3 0 -3 -3v-516q0 -3 3 -3h57q40 0 40 46zM387 135q0 -20 -6.5 -43.5t-23 -43.5t-45.5 -34t-74 -14h-169q-3 0 -3 3v697q0 4 3 4h158q45 0 76 -14t49.5 -35t26.5 -45t8 -43v-432z
" />
    <glyph glyph-name="B" unicode="B" horiz-adv-x="458" 
d="M287 272q0 23 -6 41q-5 16 -16.5 29t-33.5 13h-53q-2 0 -2 -3v-257v-1q0 -3 3 -3h105q3 0 3 3v178zM176 439q0 -4 3 -4h48q7 0 16.5 1.5t18.5 9.5t15 23.5t6 44.5v95q0 4 -3 4h-101q-3 0 -3 -3v-1v-170zM393 478q0 -24 -10 -40t-23 -25t-26 -13t-19 -5q6 0 20 -1.5
t27.5 -9.5t24 -24.5t10.5 -46.5v-219q0 -40 -27 -67.5t-67 -27.5h-234q-3 0 -3 3v698q0 3 3 3h229q19 0 36.5 -7.5t30.5 -20t20.5 -30t7.5 -37.5v-130z" />
    <glyph glyph-name="C" unicode="C" horiz-adv-x="435" 
d="M283 704q39 0 65 -27.5t26 -66.5v-141q0 -3 -4 -3h-97q-3 0 -3 3v141q0 4 -3 4h-92q-3 0 -3 -4v-517q0 -3 3 -3h92q3 0 3 3v183q0 4 4 4h97q3 0 3 -4v-182q0 -39 -26 -66.5t-65 -27.5h1h-129h1q-20 0 -37 7.5t-29.5 20t-20 29.5t-7.5 37v516q0 19 7.5 36.5t20 30t29.5 20
t37 7.5h-1h129h-1z" />
    </font>
</defs>
</svg>
