<?xml version="1.0" standalone="no"?>
<!DOCTYPE svg PUBLIC "-//W3C//DTD SVG 1.1//EN" "http://www.w3.org/Graphics/SVG/1.1/DTD/svg11.dtd" >
<svg>
<metadata>
Created by FontForge 20090622 at Tue Nov 19 14:23:09 2019
 By deploy user
(c) 1999-2012 Typodermic Fonts Inc. See attached license agreement. If agreement is missing visit typodermicfonts.com for more info.
</metadata>
<defs>
<font id="ZeroesThree-Regular" horiz-adv-x="634" >
  <font-face 
    font-family="Zeroes Three"
    font-weight="400"
    font-stretch="normal"
    units-per-em="1000"
    panose-1="4 1 4 0 0 0 0 0 0 0"
    ascent="727"
    descent="-273"
    x-height="628"
    cap-height="695"
    bbox="-224 -273 1291 927"
    underline-thickness="20"
    underline-position="-123"
    unicode-range="U+0017-U+E04B"
  />
<missing-glyph horiz-adv-x="828" 
d="M145 -273q-44 0 -67 19.5t-23 58.5v970q0 39 23 58.5t67 19.5h537q90 0 90 -78v-970q0 -78 -90 -78h-537zM673 403q5 23 5 40q0 41 -24.5 70.5t-69.5 42.5l-347 93l-32 -121l347 -93l-32 -123l-138 37q-9 3 -18 4t-18 1q-42 0 -74 -24t-43 -69l-7 -31l120 -32l8 31
l138 -37l14.5 -3.5t14.5 -1.5q45 0 77.5 24.5t46.5 73.5zM245 -11q16 0 32 6.5t28 18t19.5 27t7.5 33.5q0 35 -25.5 60.5t-63.5 25.5q-16 0 -31 -6t-27 -17t-19 -26.5t-7 -34.5q0 -17 6.5 -32.5t17.5 -27.5t27 -19.5t35 -7.5z" />
    <glyph glyph-name=".notdef" unicode="&#x28;P&#x29;" horiz-adv-x="828" 
d="M145 -273q-44 0 -67 19.5t-23 58.5v970q0 39 23 58.5t67 19.5h537q90 0 90 -78v-970q0 -78 -90 -78h-537zM673 403q5 23 5 40q0 41 -24.5 70.5t-69.5 42.5l-347 93l-32 -121l347 -93l-32 -123l-138 37q-9 3 -18 4t-18 1q-42 0 -74 -24t-43 -69l-7 -31l120 -32l8 31
l138 -37l14.5 -3.5t14.5 -1.5q45 0 77.5 24.5t46.5 73.5zM245 -11q16 0 32 6.5t28 18t19.5 27t7.5 33.5q0 35 -25.5 60.5t-63.5 25.5q-16 0 -31 -6t-27 -17t-19 -26.5t-7 -34.5q0 -17 6.5 -32.5t17.5 -27.5t27 -19.5t35 -7.5z" />
    <glyph glyph-name="copyright" unicode="&#x28;C&#x29;" horiz-adv-x="723" 
d="M686 313q0 -66 -26 -125t-70 -103.5t-103 -70t-125 -25.5q-67 0 -126 25.5t-103.5 69.5t-70 103t-25.5 126t25.5 126t70 103t103.5 70t126 26q66 0 125 -26t103 -70t70 -103.5t26 -125.5zM612 313q0 51 -20 97t-54 80t-79.5 54t-96.5 20q-52 0 -97.5 -20t-79.5 -54
t-54 -79.5t-20 -97.5q0 -51 20 -96.5t54 -79.5t79.5 -54t97.5 -20q51 0 96.5 20t79.5 54t54 79.5t20 96.5zM505 219q-24 -35 -61.5 -55t-80.5 -20q-35 0 -66.5 13.5t-54.5 36.5t-36.5 54t-13.5 66t13.5 66.5t36.5 55t54.5 37t66.5 13.5q43 0 80.5 -20.5t61.5 -55.5l-60 -30
q-32 40 -82 40q-22 0 -41 -8.5t-33.5 -23t-22.5 -34t-8 -40.5t8 -40t22.5 -33.5t33.5 -23t41 -8.5q50 0 82 40z" />
    <glyph glyph-name="registered" unicode="&#x28;R&#x29;" horiz-adv-x="723" 
d="M686 313q0 -66 -26 -125t-70 -103.5t-103 -70t-125 -25.5q-67 0 -126 25.5t-103.5 69.5t-70 103t-25.5 126t25.5 126t70 103t103.5 70t126 26q66 0 125 -26t103 -70t70 -103.5t26 -125.5zM612 313q0 51 -20 97t-54 80t-79.5 54t-96.5 20q-52 0 -97.5 -20t-79.5 -54
t-54 -79.5t-20 -97.5q0 -51 20 -96.5t54 -79.5t79.5 -54t97.5 -20q51 0 96.5 20t79.5 54t54 79.5t20 96.5zM533 149h-100l-156 132h-10v-132h-65v331h252q27 0 47 -19t20 -47v-67q0 -66 -67 -66h-81zM454 347v67h-187v-67h187z" />
    <glyph glyph-name="uni0017" horiz-adv-x="310" 
 />
    <glyph glyph-name="space" unicode=" " horiz-adv-x="310" 
 />
    <glyph glyph-name="exclam" unicode="!" horiz-adv-x="242" 
d="M191 440l-37 -215h-64l-37 213v257h138v-255zM207 76q0 -18 -7 -34t-18.5 -27.5t-27 -18.5t-33.5 -7q-36 0 -61.5 25.5t-25.5 61.5t25.5 60.5t61.5 24.5q35 0 60.5 -24.5t25.5 -60.5z" />
    <glyph glyph-name="quotedbl" unicode="&#x22;" horiz-adv-x="432" 
d="M44 559zM171 808l-20 -249h-87l-20 249h127zM387 808l-20 -249h-87l-20 249h127z" />
    <glyph glyph-name="numbersign" unicode="#" horiz-adv-x="679" 
d="M653 130h-129v-130h-122v130h-126v-130h-119v130h-131v121h131v125h-131v122h131v130h119v-130h126v130h122v-130h129v-122h-129v-125h129v-121zM402 251v125h-126v-125h126z" />
    <glyph glyph-name="dollar" unicode="$" horiz-adv-x="607" 
d="M570 125q0 -56 -34.5 -90.5t-90.5 -34.5h-110v-125h-63v125h-204v125h204v126h-109q-58 0 -92 31t-34 94v126q0 27 8.5 50t24.5 40t39.5 26.5t53.5 9.5h109v124h63v-124h188v-126h-188v-126h110q59 0 92 -34t33 -91v-126zM272 376v126h-109v-126h109zM445 125v126h-110
v-126h110z" />
    <glyph glyph-name="percent" unicode="%" horiz-adv-x="961" 
d="M46 0zM394 419q0 -73 -73 -73h-202q-73 0 -73 73v202q0 31 22 52.5t51 21.5h202q30 0 51.5 -22t21.5 -52v-202zM315 425v191h-190v-191h190zM791 696l-505 -696h-114l507 696h112zM915 73q0 -73 -73 -73h-202q-73 0 -73 73v202q0 31 22 52.5t51 21.5h202q30 0 51.5 -22
t21.5 -52v-202zM836 79v191h-190v-191h190z" />
    <glyph glyph-name="ampersand" unicode="&#x26;" horiz-adv-x="655" 
d="M635 308h-62v-183q0 -56 -35 -90.5t-91 -34.5h-276q-27 0 -49.5 9.5t-39.5 26.5t-26.5 39.5t-9.5 49.5v444q0 57 34 91.5t91 34.5h214v-126h-214v-136h276v64h126v-64h62v-125zM447 125v183h-276v-183h276z" />
    <glyph glyph-name="quotesingle" unicode="'" horiz-adv-x="216" 
d="M171 808l-20 -249h-87l-20 249h127z" />
    <glyph glyph-name="parenleft" unicode="(" horiz-adv-x="331" 
d="M177 -179q-94 279 -94 503q0 220 94 501h126q-47 -142 -70.5 -266.5t-23.5 -234.5q0 -112 23.5 -237t70.5 -266h-126z" />
    <glyph glyph-name="parenright" unicode=")" horiz-adv-x="331" 
d="M248 324q0 -222 -94 -503h-126q47 142 70.5 267t23.5 236q0 110 -23.5 234.5t-70.5 266.5h126q94 -281 94 -501z" />
    <glyph glyph-name="asterisk" unicode="*" horiz-adv-x="424" 
d="M399 558l-102 -54l102 -55l-49 -82l-97 62l4 -114h-95l6 113l-94 -61l-50 82l101 55l-101 54l46 80l98 -60l-6 117h95l-4 -118l99 61z" />
    <glyph glyph-name="plus" unicode="+" horiz-adv-x="487" 
d="M181 125v126h-126v125h126v125h125v-125h125v-125h-125v-126h-125z" />
    <glyph glyph-name="comma" unicode="," horiz-adv-x="262" 
d="M218 70q0 -57 -35.5 -98.5t-106.5 -57.5l-16 27q44 20 52 57q-32 0 -50 23.5t-18 51.5q0 38 23.5 63t64.5 25q33 0 59.5 -23t26.5 -68z" />
    <glyph glyph-name="hyphen" unicode="-" horiz-adv-x="362" 
d="M346 251h-330v125h330v-125z" />
    <glyph glyph-name="period" unicode="." horiz-adv-x="262" 
d="M218 76q0 -18 -7 -34t-19 -27.5t-27.5 -18.5t-33.5 -7q-36 0 -61.5 25.5t-25.5 61.5t25.5 60.5t61.5 24.5q18 0 33.5 -6.5t27.5 -18t19 -27t7 -33.5z" />
    <glyph glyph-name="slash" unicode="/" horiz-adv-x="465" 
d="M465 695l-349 -769h-116l349 769h116z" />
    <glyph glyph-name="zero" unicode="0" horiz-adv-x="625" 
d="M579 125q0 -125 -125 -125h-283q-125 0 -125 125v445q0 27 10 49.5t27.5 39.5t40 26.5t47.5 9.5h283q26 0 48.5 -10t39.5 -27t27 -39.5t10 -48.5v-445zM454 125v445h-283v-445h283z" />
    <glyph glyph-name="one" unicode="1" horiz-adv-x="425" 
d="M404 0h-376v125h127v445h-127v125h252v-570h124v-125z" />
    <glyph glyph-name="two" unicode="2" horiz-adv-x="622" 
d="M578 0h-535v307q0 61 33 93t93 32h284v138h-402v125h402q67 0 96 -33.5t29 -91.5v-133q0 -56 -29 -93t-96 -37h-284v-182h409v-125z" />
    <glyph glyph-name="three" unicode="3" horiz-adv-x="596" 
d="M550 132q-1 -66 -28 -99t-96 -33h-409v125h409v187h-403v117h403v141h-407v125h407q65 0 94 -31t29 -94v-120q0 -40 -13 -59t-44 -28q31 -6 45.5 -26t14.5 -61z" />
    <glyph glyph-name="four" unicode="4" horiz-adv-x="658" 
d="M638 216h-79v-216h-126v216h-410v479h127v-354h283v354h126v-354h79v-125z" />
    <glyph glyph-name="five" unicode="5" horiz-adv-x="630" 
d="M584 125q0 -59 -33 -92t-92 -33h-406v125h406v183h-408v387h527v-125h-400v-137h281q57 0 91 -34.5t34 -90.5v-183z" />
    <glyph glyph-name="six" unicode="6" horiz-adv-x="621" 
d="M579 125q0 -63 -33 -94t-93 -31h-281q-59 0 -92.5 34t-33.5 91v445q0 54 33 89.5t93 35.5h401v-125h-401v-136h281q58 0 92 -34t34 -91v-184zM453 125v184h-281v-184h281z" />
    <glyph glyph-name="seven" unicode="7" horiz-adv-x="570" 
d="M551 578l-352 -578h-148l355 570h-388v125h533v-117z" />
    <glyph glyph-name="eight" unicode="8" horiz-adv-x="624" 
d="M580 125q0 -125 -126 -125h-283q-127 0 -127 125v151q0 55 61 90q-61 34 -61 99v105q0 26 10 49t27.5 40t40.5 26.5t49 9.5h283q26 0 49 -10t40 -27t27 -39.5t10 -48.5v-105q0 -66 -61 -99q61 -34 61 -90v-151zM454 429v141h-283v-141h283zM454 125v187h-283v-187h283z
" />
    <glyph glyph-name="nine" unicode="9" horiz-adv-x="619" 
d="M40 570q0 59 33 92t94 33h281q59 0 92 -32.5t33 -92.5v-445q0 -27 -9.5 -49.5t-26.5 -39.5t-39.5 -26.5t-49.5 -9.5h-401v125h401v178h-281q-59 0 -93 30.5t-34 95.5v141zM167 570v-141h281v141h-281z" />
    <glyph glyph-name="colon" unicode=":" horiz-adv-x="284" 
d="M229 76q0 -18 -7 -34t-19 -27.5t-27.5 -18.5t-33.5 -7q-36 0 -61.5 25.5t-25.5 61.5t25.5 60.5t61.5 24.5q18 0 33.5 -6.5t27.5 -18t19 -27t7 -33.5zM229 472q0 -18 -7 -34t-19 -27.5t-27.5 -18.5t-33.5 -7q-36 0 -61.5 25.5t-25.5 61.5t25.5 61t61.5 25q18 0 33.5 -6.5
t27.5 -18.5t19 -27.5t7 -33.5z" />
    <glyph glyph-name="semicolon" unicode=";" horiz-adv-x="284" 
d="M229 472q0 -18 -7 -34t-19 -27.5t-27.5 -18.5t-33.5 -7q-36 0 -61.5 25.5t-25.5 61.5t25.5 61t61.5 25q18 0 33.5 -6.5t27.5 -18.5t19 -27.5t7 -33.5zM229 70q0 -57 -35.5 -98.5t-106.5 -57.5l-16 27q43 20 53 57q-33 0 -51 23.5t-18 51.5q0 38 23.5 63t64.5 25
q33 0 59.5 -23t26.5 -68z" />
    <glyph glyph-name="less" unicode="&#x3c;" horiz-adv-x="487" 
d="M55 241v144l376 139v-135l-249 -76l249 -75v-135z" />
    <glyph glyph-name="equal" unicode="=" horiz-adv-x="487" 
d="M55 371v125h376v-125h-376zM55 131v125h376v-125h-376z" />
    <glyph glyph-name="greater" unicode="&#x3e;" horiz-adv-x="487" 
d="M55 103v135l250 75l-250 76v135l376 -139v-144z" />
    <glyph glyph-name="question" unicode="?" horiz-adv-x="529" 
d="M504 424q0 -28 -9 -52t-25.5 -41t-39.5 -27t-50 -10h-142v-75h-125v75q0 55 35 90t90 35h142v150h-361v126h361q57 0 90.5 -33.5t33.5 -92.5v-145zM263 76q0 -18 -7 -34t-19 -27.5t-27.5 -18.5t-33.5 -7q-36 0 -61.5 25.5t-25.5 61.5t25.5 60.5t61.5 24.5q18 0 33.5 -6.5
t27.5 -18t19 -27t7 -33.5z" />
    <glyph glyph-name="at" unicode="@" horiz-adv-x="702" 
d="M482 435v-181h72v258h-395v-399h497v-113h-486q-54 0 -89 31.5t-35 92.5v377q0 59 31 93t93 34h363q123 0 123 -127v-190q0 -125 -123 -125h-245q-21 0 -34.5 14t-13.5 36v151q0 20 14 34t34 14h194zM420 254v119h-117v-119h117z" />
    <glyph glyph-name="A" unicode="A" 
d="M583 0h-124v308h-284v-308h-124v587q0 45 29 76.5t77 31.5h320q22 0 41.5 -8t33.5 -22t22.5 -34t8.5 -44v-587zM459 433v136h-284v-136h284z" />
    <glyph glyph-name="B" unicode="B" horiz-adv-x="635" 
d="M588 132q-1 -66 -28 -99t-96 -33h-409v695h409q65 0 94 -31t29 -94v-120q0 -40 -13 -59t-44 -28q31 -6 45.5 -26t14.5 -61zM464 429v141h-284v-141h284zM464 125v187h-284v-187h284z" />
    <glyph glyph-name="C" unicode="C" horiz-adv-x="587" 
d="M562 0h-390q-126 0 -126 125v445q0 54 31.5 89.5t94.5 35.5h390v-125h-390v-445h390v-125z" />
    <glyph glyph-name="D" unicode="D" 
d="M588 125q0 -125 -125 -125h-408v695h408q26 0 48.5 -10t39.5 -27t27 -39.5t10 -48.5v-445zM463 125v445h-281v-445h281z" />
    <glyph glyph-name="E" unicode="E" horiz-adv-x="524" 
d="M490 0h-435v695h434v-125h-309v-139h308v-125h-308v-181h310v-125z" />
    <glyph glyph-name="F" unicode="F" horiz-adv-x="500" 
d="M482 308h-302v-308h-125v695h430v-125h-305v-137h302v-125z" />
    <glyph glyph-name="G" unicode="G" horiz-adv-x="631" 
d="M581 0h-409q-126 0 -126 125v445q0 54 32.5 89.5t93.5 35.5h388v-125h-388v-445h283v186h-194v122h320v-433z" />
    <glyph glyph-name="H" unicode="H" horiz-adv-x="624" 
d="M569 0h-126v309h-261v-309h-127v695h127v-261h261v261h126v-695z" />
    <glyph glyph-name="I" unicode="I" horiz-adv-x="235" 
d="M180 0h-125v695h125v-695z" />
    <glyph glyph-name="J" unicode="J" horiz-adv-x="612" 
d="M557 0h-411q-125 0 -125 125v126h125v-126h285v570h126v-695z" />
    <glyph glyph-name="K" unicode="K" horiz-adv-x="618" 
d="M610 0h-164l-266 303v-303h-125v695h125v-287l260 287h162l-311 -337z" />
    <glyph glyph-name="L" unicode="L" horiz-adv-x="496" 
d="M480 0h-425v695h126v-570h299v-125z" />
    <glyph glyph-name="M" unicode="M" horiz-adv-x="754" 
d="M698 0h-127v430l-106 -430h-177l-106 430v-430h-127v695h179l145 -561l145 561h174v-695z" />
    <glyph glyph-name="N" unicode="N" horiz-adv-x="656" 
d="M601 0h-96l-323 466v-466h-127v695h125l296 -442v442h125v-695z" />
    <glyph glyph-name="O" unicode="O" horiz-adv-x="643" 
d="M167 0q-59 0 -90 30.5t-31 91.5v451q0 24 9 46t25.5 39t38.5 27t48 10h309q25 0 47 -10t38.5 -26.5t26 -38.5t9.5 -47v-451q0 -122 -121 -122h-309zM473 124v447h-303v-447h303z" />
    <glyph glyph-name="P" unicode="P" horiz-adv-x="610" 
d="M581 422q0 -125 -126 -125h-275v-297h-125v695h400q26 0 49 -10t40 -27t27 -39.5t10 -48.5v-148zM455 422v148h-275v-148h275z" />
    <glyph glyph-name="Q" unicode="Q" horiz-adv-x="643" 
d="M384 0v-108h-125v108h-92q-59 0 -90 30.5t-31 91.5v451q0 24 9 46t25.5 39t38.5 27t48 10h309q25 0 47 -10t38.5 -26.5t26 -38.5t9.5 -47v-451q0 -122 -121 -122h-92zM473 124v447h-303v-447h303z" />
    <glyph glyph-name="R" unicode="R" horiz-adv-x="627" 
d="M613 0h-157l-224 318h-51l2 -318h-125l-3 695h408q27 0 50 -9t40 -25.5t26.5 -39.5t9.5 -51v-127q0 -66 -31.5 -95.5t-94.5 -29.5h-81zM463 439v131h-282v-131h282z" />
    <glyph glyph-name="S" unicode="S" horiz-adv-x="586" 
d="M541 125q0 -61 -32.5 -93t-93.5 -32h-362v125h362v183h-246q-56 0 -90.5 31.5t-34.5 93.5v137q0 60 34 92.5t91 32.5h342v-125h-342v-137h246q57 0 91.5 -34t34.5 -91v-183z" />
    <glyph glyph-name="T" unicode="T" horiz-adv-x="573" 
d="M554 570h-206v-570h-124v570h-206v125h536v-125z" />
    <glyph glyph-name="U" unicode="U" horiz-adv-x="635" 
d="M584 125q0 -56 -35 -90.5t-90 -34.5h-283q-27 0 -50 9.5t-39.5 26t-26 39.5t-9.5 50v570h125v-570h283v570h125v-570z" />
    <glyph glyph-name="V" unicode="V" horiz-adv-x="564" 
d="M553 695l-212 -695h-124l-206 695h136l135 -503l143 503h128z" />
    <glyph glyph-name="W" unicode="W" horiz-adv-x="887" 
d="M876 695l-193 -695h-130l-109 438l-113 -438h-135l-185 695h133l122 -491l127 491h105l119 -491l130 491h129z" />
    <glyph glyph-name="X" unicode="X" horiz-adv-x="632" 
d="M619 0h-151l-157 265l-155 -265h-145l227 360l-220 335h149l151 -235l149 235h145l-221 -329z" />
    <glyph glyph-name="Y" unicode="Y" horiz-adv-x="586" 
d="M579 695l-226 -452v-243h-126v243l-221 452h140l146 -314l150 314h137z" />
    <glyph glyph-name="Z" unicode="Z" horiz-adv-x="597" 
d="M564 0h-531v69l343 501h-343v125h531v-61l-342 -509h342v-125z" />
    <glyph glyph-name="bracketleft" unicode="[" horiz-adv-x="360" 
d="M333 -125h-250v877h250v-124h-125v-628h125v-125z" />
    <glyph glyph-name="backslash" unicode="\" horiz-adv-x="465" 
d="M115 695l350 -769h-117l-348 769h115z" />
    <glyph glyph-name="bracketright" unicode="]" horiz-adv-x="362" 
d="M279 -125h-251v125h126v628h-126v124h251v-877z" />
    <glyph glyph-name="asciicircum" unicode="^" horiz-adv-x="456" 
d="M156 628h144l138 -376h-135l-75 249l-76 -249h-134z" />
    <glyph glyph-name="underscore" unicode="_" horiz-adv-x="625" 
d="M627 -208h-628v126h628v-126z" />
    <glyph glyph-name="grave" unicode="`" horiz-adv-x="376" 
d="M317 659h-116l-150 194h133z" />
    <glyph glyph-name="a" unicode="a" horiz-adv-x="721" 
d="M670 0h-502q-27 0 -50 9.5t-39.5 26t-26 39.5t-9.5 50v126q0 55 35 90t90 35h376v126h-501v126h501q56 0 91 -35.5t35 -90.5v-502zM544 125v126h-376v-126h376z" />
    <glyph glyph-name="b" unicode="b" horiz-adv-x="728" 
d="M682 125q0 -56 -34.5 -90.5t-89.5 -34.5h-503v808h125v-180h378q24 0 46.5 -9.5t39.5 -26.5t27.5 -39.5t10.5 -47.5v-380zM558 125v377h-378v-377h378z" />
    <glyph glyph-name="c" unicode="c" horiz-adv-x="677" 
d="M652 0h-481q-125 0 -125 125v377q0 53 31.5 89.5t93.5 36.5h481v-126h-481v-377h481v-125z" />
    <glyph glyph-name="d" unicode="d" horiz-adv-x="717" 
d="M662 0h-491q-55 0 -90 34.5t-35 90.5v380q0 26 10 48.5t27.5 39t40 26t47.5 9.5h366v180h125v-808zM537 125v377h-366v-377h366z" />
    <glyph glyph-name="e" unicode="e" horiz-adv-x="705" 
d="M170 252v-127h466v-125h-466q-27 0 -50 9.5t-39.5 26.5t-25.5 39.5t-9 49.5v378q0 55 32 90t92 35h373q27 0 50 -9.5t39.5 -26t25.5 -39.5t9 -50v-126q0 -57 -34 -91t-90 -34h-373zM543 377v126h-373v-126h373z" />
    <glyph glyph-name="f" unicode="f" horiz-adv-x="305" 
d="M296 688h-118v-60h87v-116h-83v-512h-125v512h-56v116h56v54q0 56 34.5 91t90.5 35h114v-120z" />
    <glyph glyph-name="g" unicode="g" horiz-adv-x="729" 
d="M674 -82q0 -126 -126 -126h-213v126h213v82h-376q-26 0 -49 9.5t-40 26t-27 38.5t-10 48v380q0 56 34.5 91t91.5 35h502v-710zM548 125v377h-376v-377h376z" />
    <glyph glyph-name="h" unicode="h" horiz-adv-x="733" 
d="M682 0h-126v502h-376v-502h-125v808h125v-180h376q126 0 126 -126v-502z" />
    <glyph glyph-name="i" unicode="i" horiz-adv-x="235" 
d="M180 0h-125v628h125v-628z" />
    <glyph glyph-name="j" unicode="j" horiz-adv-x="251" 
d="M195 -82q0 -57 -34.5 -91.5t-90.5 -34.5h-125v126h125v710h125v-710z" />
    <glyph glyph-name="k" unicode="k" horiz-adv-x="692" 
d="M684 0h-192l-312 274v-274h-125v808h125v-439l304 259h190l-363 -305z" />
    <glyph glyph-name="l" unicode="l" horiz-adv-x="237" 
d="M182 0h-127v808h127v-808z" />
    <glyph glyph-name="m" unicode="m" horiz-adv-x="982" 
d="M932 0h-125v502h-251v-502h-125v502h-251v-502h-125v628h752q125 0 125 -126v-502z" />
    <glyph glyph-name="n" unicode="n" horiz-adv-x="700" 
d="M650 0h-126v502h-344v-502h-125v628h469q126 0 126 -126v-502z" />
    <glyph glyph-name="o" unicode="o" horiz-adv-x="718" 
d="M672 125q0 -125 -125 -125h-376q-125 0 -125 125v377q0 27 10 50t27.5 40t40 26.5t47.5 9.5h376q26 0 48.5 -10t39.5 -27t27 -40t10 -49v-377zM547 125v377h-376v-377h376z" />
    <glyph glyph-name="p" unicode="p" horiz-adv-x="733" 
d="M682 122q0 -26 -10.5 -48t-27.5 -38.5t-40 -26t-48 -9.5h-376v-208h-125v836h501q57 0 91.5 -35t34.5 -91v-380zM556 125v377h-376v-377h376z" />
    <glyph glyph-name="q" unicode="q" horiz-adv-x="734" 
d="M678 -208h-125v208h-376q-26 0 -49 9.5t-40 26t-27 38.5t-10 48v380q0 56 34 91t92 35h501v-836zM553 125v377h-376v-377h376z" />
    <glyph glyph-name="r" unicode="r" horiz-adv-x="654" 
d="M629 376h-126v126h-323v-502h-125v628h448q126 0 126 -126v-126z" />
    <glyph glyph-name="s" unicode="s" horiz-adv-x="674" 
d="M629 125q0 -61 -33 -93t-94 -32h-449v125h449v126h-333q-56 0 -90.5 31.5t-34.5 93.5v126q0 60 34 93t91 33h429v-126h-429v-126h333q58 0 92.5 -34t34.5 -91v-126z" />
    <glyph glyph-name="t" unicode="t" horiz-adv-x="323" 
d="M302 0h-126q-27 0 -50 9.5t-39.5 26t-26 39.5t-9.5 50v681h125v-178h126v-116h-126v-387h126v-125z" />
    <glyph glyph-name="u" unicode="u" horiz-adv-x="728" 
d="M677 125q0 -56 -34.5 -90.5t-90.5 -34.5h-377q-27 0 -50 9.5t-39.5 26t-25.5 39.5t-9 50v503h124v-503h377v503h125v-503z" />
    <glyph glyph-name="v" unicode="v" horiz-adv-x="650" 
d="M639 628l-255 -628h-125l-248 628h144l170 -463l179 463h135z" />
    <glyph glyph-name="w" unicode="w" horiz-adv-x="1026" 
d="M1015 628l-240 -628h-130l-132 400l-136 -400h-136l-230 628h143l158 -456l153 456h101l143 -456l167 456h139z" />
    <glyph glyph-name="x" unicode="x" horiz-adv-x="775" 
d="M764 0h-173l-208 244l-205 -244h-167l291 331l-284 297h173l200 -217l198 217h168l-282 -296z" />
    <glyph glyph-name="y" unicode="y" horiz-adv-x="650" 
d="M157 628l164 -449l181 449h137l-336 -836h-140l89 218l-241 618h146z" />
    <glyph glyph-name="z" unicode="z" horiz-adv-x="693" 
d="M660 0h-627v69l407 433h-407v126h627v-61l-406 -442h406v-125z" />
    <glyph glyph-name="braceleft" unicode="{" horiz-adv-x="415" 
d="M137 -125v331l-100 98l100 101v347h250v-124h-125v-257l-67 -67l67 -65v-239h125v-125h-250z" />
    <glyph glyph-name="bar" unicode="|" horiz-adv-x="298" 
d="M203 -170h-109v957h109v-957z" />
    <glyph glyph-name="braceright" unicode="}" horiz-adv-x="398" 
d="M277 751v-330l101 -99l-101 -101v-347h-249v125h125v256l66 67l-66 66v238h-125v125h249z" />
    <glyph glyph-name="asciitilde" unicode="~" horiz-adv-x="487" 
d="M431 275q-10 -21 -31.5 -38t-57.5 -17q-34 0 -57 8t-44.5 17t-45 17t-59.5 8q-30 0 -49 -12.5t-32 -33.5v125q10 21 32 38t58 17q34 0 57 -8t44 -17t44.5 -17t59.5 -8q31 0 50 12.5t31 33.5v-125z" />
    <glyph glyph-name="nonbreakingspace" unicode="&#xa0;" horiz-adv-x="310" 
 />
    <glyph glyph-name="exclamdown" unicode="&#xa1;" horiz-adv-x="242" 
d="M50 47l37 215h64l37 -213v-257h-138v255zM34 411q0 18 7 34t18.5 27.5t27 18.5t33.5 7q36 0 61.5 -25.5t25.5 -61.5t-25.5 -60.5t-61.5 -24.5q-35 0 -60.5 24.5t-25.5 60.5z" />
    <glyph glyph-name="cent" unicode="&#xa2;" horiz-adv-x="659" 
d="M393 636q72 -6 134 -43t104 -98l-114 -57q-49 62 -124 73v-395q76 12 124 73l114 -56q-42 -61 -104 -98t-134 -44v-116h-63v116q-62 6 -115 33.5t-93 70.5t-62.5 99t-22.5 119t22.5 119t62.5 99.5t93 71t115 33.5v116h63v-116zM163 313q0 -36 12.5 -69t35 -59.5t53 -44
t66.5 -23.5v394q-36 -6 -66.5 -24.5t-53 -44.5t-35 -59.5t-12.5 -69.5z" />
    <glyph glyph-name="sterling" unicode="&#xa3;" horiz-adv-x="711" 
d="M51 502q0 26 9.5 49t26.5 40t40 27t49 10h502v-126h-502v-126h275v-125h-275v-126h502v-125h-626z" />
    <glyph glyph-name="yen" unicode="&#xa5;" horiz-adv-x="648" 
d="M384 66v-66h-125v66h-192v68h192v62h-192v68h164l-221 364h145l169 -281l173 281h141l-226 -364h168v-68h-196v-62h196v-68h-196z" />
    <glyph glyph-name="brokenbar" unicode="&#xa6;" horiz-adv-x="298" 
d="M94 -170v373h109v-373h-109zM203 426h-109v361h109v-361z" />
    <glyph glyph-name="dieresis" unicode="&#xa8;" horiz-adv-x="512" 
d="M456 756q0 -33 -23.5 -56t-55.5 -23t-55 23t-23 56t23 55.5t55 22.5t55.5 -22.5t23.5 -55.5zM213 756q0 -33 -23 -56t-55 -23q-34 0 -57 23t-23 56t23 55.5t57 22.5q32 0 55 -22.5t23 -55.5z" />
    <glyph glyph-name="ordfeminine" unicode="&#xaa;" horiz-adv-x="431" 
d="M387 279h-79v135h-190v-135h-79v275q0 35 20 54.5t53 19.5h202q32 0 52.5 -21.5t20.5 -52.5v-275zM308 493v56h-190v-56h190z" />
    <glyph glyph-name="guillemotleft" unicode="&#xab;" horiz-adv-x="568" 
d="M18 101zM300 171l-71 -70l-211 211l211 211l71 -70l-141 -141zM549 171l-71 -70l-211 211l211 211l71 -70l-141 -141z" />
    <glyph glyph-name="macron" unicode="&#xaf;" horiz-adv-x="511" 
d="M455 706h-400v114h400v-114z" />
    <glyph glyph-name="degree" unicode="&#xb0;" horiz-adv-x="371" 
d="M330 549q0 -30 -11.5 -56t-31 -45.5t-46.5 -31t-57 -11.5t-56 11.5t-45.5 31t-31 45.5t-11.5 56t11.5 56.5t31 46.5t45.5 31.5t56 11.5t57 -11.5t46.5 -31.5t31 -46.5t11.5 -56.5zM240 549q0 23 -16.5 39.5t-39.5 16.5q-22 0 -38 -16.5t-16 -39.5q0 -22 16 -38t38 -16
q23 0 39.5 16t16.5 38z" />
    <glyph glyph-name="plusminus" unicode="&#xb1;" horiz-adv-x="487" 
d="M55 0zM181 125v126h-126v125h126v125h125v-125h125v-125h-125v-126h-125zM55 -58v125h376v-125h-376z" />
    <glyph glyph-name="twosuperior" unicode="&#xb2;" horiz-adv-x="423" 
d="M35 279zM384 279h-349v141q0 32 20 52.5t53 20.5h196v56h-265v79h271q34 0 54 -19.5t20 -54.5v-64q0 -34 -21 -55t-53 -21h-196v-56h270v-79z" />
    <glyph glyph-name="threesuperior" unicode="&#xb3;" horiz-adv-x="403" 
d="M20 279zM364 352q0 -73 -73 -73h-271v79h265v56h-262v79h262v56h-264v79h270q36 0 53.5 -19.5t17.5 -54.5v-50q0 -24 -4.5 -35t-18.5 -18q12 -8 18.5 -19t6.5 -30v-50z" />
    <glyph glyph-name="acute" unicode="&#xb4;" horiz-adv-x="376" 
d="M192 853h133l-150 -194h-116z" />
    <glyph glyph-name="paragraph" unicode="&#xb6;" horiz-adv-x="776" 
d="M446 682v-955h-125v704h-167q-125 0 -125 125v126q0 26 10 49t27 40t39.5 27t48.5 10h562v-1081h-125v955h-145zM321 556v126h-167v-126h167z" />
    <glyph glyph-name="periodcentered" unicode="&#xb7;" horiz-adv-x="262" 
d="M44 226zM218 313q0 -18 -7 -34t-19 -27.5t-27.5 -18.5t-33.5 -7q-36 0 -61.5 25.5t-25.5 61.5t25.5 60.5t61.5 24.5q18 0 33.5 -6.5t27.5 -18t19 -27t7 -33.5z" />
    <glyph glyph-name="cedilla" unicode="&#xb8;" horiz-adv-x="284" 
d="M229 -117q0 -57 -35.5 -99t-106.5 -57l-16 27q43 20 53 57q-33 0 -51 23.5t-18 51.5q0 38 23.5 63t64.5 25q33 0 59.5 -23t26.5 -68z" />
    <glyph glyph-name="onesuperior" unicode="&#xb9;" horiz-adv-x="264" 
d="M25 279zM239 279h-214v79h69v191h-69v79h147v-270h67v-79z" />
    <glyph glyph-name="ordmasculine" unicode="&#xba;" horiz-adv-x="428" 
d="M391 458q0 -37 -14.5 -69.5t-39 -57t-57 -39t-68.5 -14.5q-37 0 -70 14t-57.5 38.5t-39 57.5t-14.5 70t14.5 69.5t39 57t57.5 39t70 14.5q36 0 68.5 -14.5t57 -39t39 -57.5t14.5 -69zM312 458q0 21 -8 39t-21.5 32t-31.5 22t-39 8t-39.5 -8t-32.5 -22t-22 -32t-8 -39
t8 -39t22 -32t32.5 -22t39.5 -8q20 0 38.5 8t32 22t21.5 32t8 39z" />
    <glyph glyph-name="guillemotright" unicode="&#xbb;" horiz-adv-x="578" 
d="M18 101zM159 312l-141 141l70 70l212 -211l-212 -211l-70 70zM418 312l-141 141l70 70l212 -211l-212 -211l-70 70z" />
    <glyph glyph-name="onequarter" unicode="&#xbc;" horiz-adv-x="918" 
d="M46 0zM260 346h-214v79h69v191h-69v79h147v-270h67v-79zM680 696l-505 -696h-114l507 696h112zM872 135h-43v-135h-79v135h-270v214h79v-135h191v135h79v-135h43v-79z" />
    <glyph glyph-name="onehalf" unicode="&#xbd;" horiz-adv-x="886" 
d="M46 0zM260 346h-214v79h69v191h-69v79h147v-270h67v-79zM680 696l-505 -696h-114l507 696h112zM840 0h-349v141q0 32 20 52.5t53 20.5h196v56h-265v79h271q34 0 54 -19.5t20 -54.5v-64q0 -34 -21 -55t-53 -21h-196v-56h270v-79z" />
    <glyph glyph-name="threequarters" unicode="&#xbe;" horiz-adv-x="1023" 
d="M46 0zM390 419q0 -73 -73 -73h-271v79h265v56h-262v79h262v56h-264v79h270q36 0 53.5 -19.5t17.5 -54.5v-50q0 -24 -4.5 -35t-18.5 -18q12 -8 18.5 -19t6.5 -30v-50zM785 696l-505 -696h-114l507 696h112zM977 135h-43v-135h-79v135h-270v214h79v-135h191v135h79v-135h43
v-79z" />
    <glyph glyph-name="questiondown" unicode="&#xbf;" horiz-adv-x="529" 
d="M25 63q0 28 9 52t25.5 41t39.5 27t50 10h142v75h125v-75q0 -55 -35 -90t-90 -35h-142v-150h361v-126h-361q-57 0 -90.5 33.5t-33.5 92.5v145zM266 411q0 18 7 34t19 27.5t27.5 18.5t33.5 7q36 0 61.5 -25.5t25.5 -61.5t-25.5 -60.5t-61.5 -24.5q-18 0 -33.5 6.5t-27.5 18
t-19 27t-7 33.5z" />
    <glyph glyph-name="Agrave" unicode="&#xc0;" 
d="M51 0zM583 0h-124v308h-284v-308h-124v587q0 45 29 76.5t77 31.5h320q22 0 41.5 -8t33.5 -22t22.5 -34t8.5 -44v-587zM459 433v136h-284v-136h284zM407 733h-116l-150 194h133z" />
    <glyph glyph-name="Aacute" unicode="&#xc1;" 
d="M51 0zM583 0h-124v308h-284v-308h-124v587q0 45 29 76.5t77 31.5h320q22 0 41.5 -8t33.5 -22t22.5 -34t8.5 -44v-587zM459 433v136h-284v-136h284zM367 927h133l-150 -194h-116z" />
    <glyph glyph-name="Acircumflex" unicode="&#xc2;" 
d="M51 0zM583 0h-124v308h-284v-308h-124v587q0 45 29 76.5t77 31.5h320q22 0 41.5 -8t33.5 -22t22.5 -34t8.5 -44v-587zM459 433v136h-284v-136h284zM533 733h-126l-88 133l-83 -133h-134l132 194h166z" />
    <glyph glyph-name="Atilde" unicode="&#xc3;" 
d="M51 0zM583 0h-124v308h-284v-308h-124v587q0 45 29 76.5t77 31.5h320q22 0 41.5 -8t33.5 -22t22.5 -34t8.5 -44v-587zM459 433v136h-284v-136h284zM522 826q-11 -21 -34 -37.5t-61 -16.5q-36 0 -61 7.5t-47.5 17t-47.5 17t-63 7.5q-32 0 -52.5 -12.5t-34.5 -33.5v98
q11 21 34 37.5t61 16.5q37 0 61.5 -7.5t47 -17t48 -17t63.5 -7.5q32 0 52.5 12.5t33.5 33.5v-98z" />
    <glyph glyph-name="Adieresis" unicode="&#xc4;" 
d="M51 0zM583 0h-124v308h-284v-308h-124v587q0 45 29 76.5t77 31.5h320q22 0 41.5 -8t33.5 -22t22.5 -34t8.5 -44v-587zM459 433v136h-284v-136h284zM524 830q0 -33 -23.5 -56t-55.5 -23t-55 23t-23 56t23 55.5t55 22.5t55.5 -22.5t23.5 -55.5zM281 830q0 -33 -23 -56
t-55 -23q-34 0 -57 23t-23 56t23 55.5t57 22.5q32 0 55 -22.5t23 -55.5z" />
    <glyph glyph-name="Aring" unicode="&#xc5;" 
d="M51 0zM583 0h-124v308h-284v-308h-124v587q0 45 29 76.5t77 31.5h320q22 0 41.5 -8t33.5 -22t22.5 -34t8.5 -44v-587zM459 433v136h-284v-136h284zM439 820q0 -22 -8.5 -41.5t-23.5 -34.5t-34.5 -23.5t-41.5 -8.5t-41.5 8.5t-34.5 23.5t-23.5 34.5t-8.5 41.5t8.5 41.5
t23.5 34t34.5 23t41.5 8.5t41.5 -8.5t34.5 -23t23.5 -34t8.5 -41.5zM372 820q0 17 -12 28.5t-29 11.5t-28.5 -11.5t-11.5 -28.5t11.5 -29t28.5 -12t29 12t12 29z" />
    <glyph glyph-name="AE" unicode="&#xc6;" horiz-adv-x="917" 
d="M862 0h-435v308h-247v-308h-125v587q0 22 7.5 42t21.5 34.5t33.5 23t43.5 8.5h700v-125h-310v-139h308v-125h-308v-181h311v-125zM427 433v136h-247v-136h247z" />
    <glyph glyph-name="Ccedilla" unicode="&#xc7;" horiz-adv-x="587" 
d="M46 0zM562 0h-390q-126 0 -126 125v445q0 54 31.5 89.5t94.5 35.5h390v-125h-390v-445h390v-125zM423 -117q0 -57 -35.5 -99t-106.5 -57l-16 27q43 20 53 57q-33 0 -51 23.5t-18 51.5q0 38 23.5 63t64.5 25q33 0 59.5 -23t26.5 -68z" />
    <glyph glyph-name="Egrave" unicode="&#xc8;" horiz-adv-x="524" 
d="M55 0zM490 0h-435v695h434v-125h-309v-139h308v-125h-308v-181h310v-125zM369 733h-116l-150 194h133z" />
    <glyph glyph-name="Eacute" unicode="&#xc9;" horiz-adv-x="524" 
d="M55 0zM490 0h-435v695h434v-125h-309v-139h308v-125h-308v-181h310v-125zM342 927h133l-150 -194h-116z" />
    <glyph glyph-name="Ecircumflex" unicode="&#xca;" horiz-adv-x="524" 
d="M55 0zM490 0h-435v695h434v-125h-309v-139h308v-125h-308v-181h310v-125zM493 733h-126l-88 133l-83 -133h-134l132 194h166z" />
    <glyph glyph-name="Edieresis" unicode="&#xcb;" horiz-adv-x="524" 
d="M55 0zM490 0h-435v695h434v-125h-309v-139h308v-125h-308v-181h310v-125zM485 830q0 -33 -23.5 -56t-55.5 -23t-55 23t-23 56t23 55.5t55 22.5t55.5 -22.5t23.5 -55.5zM242 830q0 -33 -23 -56t-55 -23q-34 0 -57 23t-23 56t23 55.5t57 22.5q32 0 55 -22.5t23 -55.5z" />
    <glyph glyph-name="Igrave" unicode="&#xcc;" horiz-adv-x="235" 
d="M0 0zM180 0h-125v695h125v-695zM203 733h-116l-150 194h133z" />
    <glyph glyph-name="Iacute" unicode="&#xcd;" horiz-adv-x="235" 
d="M36 0zM180 0h-125v695h125v-695zM169 927h133l-150 -194h-116z" />
    <glyph glyph-name="Icircumflex" unicode="&#xce;" horiz-adv-x="235" 
d="M0 0zM180 0h-125v695h125v-695zM336 733h-126l-88 133l-83 -133h-134l132 194h166z" />
    <glyph glyph-name="Idieresis" unicode="&#xcf;" horiz-adv-x="235" 
d="M0 0zM180 0h-125v695h125v-695zM323 830q0 -33 -23.5 -56t-55.5 -23t-55 23t-23 56t23 55.5t55 22.5t55.5 -22.5t23.5 -55.5zM80 830q0 -33 -23 -56t-55 -23q-34 0 -57 23t-23 56t23 55.5t57 22.5q32 0 55 -22.5t23 -55.5z" />
    <glyph glyph-name="Eth" unicode="&#xd0;" 
d="M0 431h55v264h408q26 0 48.5 -10t39.5 -27t27 -39.5t10 -48.5v-445q0 -125 -125 -125h-408v306h-55v125zM463 125v445h-281v-139h126v-125h-126v-181h281z" />
    <glyph glyph-name="Ntilde" unicode="&#xd1;" horiz-adv-x="656" 
d="M55 0zM601 0h-96l-323 466v-466h-127v695h125l296 -442v442h125v-695zM539 826q-11 -21 -34 -37.5t-61 -16.5q-36 0 -61 7.5t-47.5 17t-47.5 17t-63 7.5q-32 0 -52.5 -12.5t-34.5 -33.5v98q11 21 34 37.5t61 16.5q37 0 61.5 -7.5t47 -17t48 -17t63.5 -7.5q32 0 52.5 12.5
t33.5 33.5v-98z" />
    <glyph glyph-name="Ograve" unicode="&#xd2;" horiz-adv-x="643" 
d="M46 0zM167 0q-59 0 -90 30.5t-31 91.5v451q0 24 9 46t25.5 39t38.5 27t48 10h309q25 0 47 -10t38.5 -26.5t26 -38.5t9.5 -47v-451q0 -122 -121 -122h-309zM473 124v447h-303v-447h303zM405 733h-116l-150 194h133z" />
    <glyph glyph-name="Oacute" unicode="&#xd3;" horiz-adv-x="643" 
d="M46 0zM167 0q-59 0 -90 30.5t-31 91.5v451q0 24 9 46t25.5 39t38.5 27t48 10h309q25 0 47 -10t38.5 -26.5t26 -38.5t9.5 -47v-451q0 -122 -121 -122h-309zM473 124v447h-303v-447h303zM378 927h133l-150 -194h-116z" />
    <glyph glyph-name="Ocircumflex" unicode="&#xd4;" horiz-adv-x="643" 
d="M46 0zM167 0q-59 0 -90 30.5t-31 91.5v451q0 24 9 46t25.5 39t38.5 27t48 10h309q25 0 47 -10t38.5 -26.5t26 -38.5t9.5 -47v-451q0 -122 -121 -122h-309zM473 124v447h-303v-447h303zM538 733h-126l-88 133l-83 -133h-134l132 194h166z" />
    <glyph glyph-name="Otilde" unicode="&#xd5;" horiz-adv-x="643" 
d="M46 0zM167 0q-59 0 -90 30.5t-31 91.5v451q0 24 9 46t25.5 39t38.5 27t48 10h309q25 0 47 -10t38.5 -26.5t26 -38.5t9.5 -47v-451q0 -122 -121 -122h-309zM473 124v447h-303v-447h303zM528 826q-11 -21 -34 -37.5t-61 -16.5q-36 0 -61 7.5t-47.5 17t-47.5 17t-63 7.5
q-32 0 -52.5 -12.5t-34.5 -33.5v98q11 21 34 37.5t61 16.5q37 0 61.5 -7.5t47 -17t48 -17t63.5 -7.5q32 0 52.5 12.5t33.5 33.5v-98z" />
    <glyph glyph-name="Odieresis" unicode="&#xd6;" horiz-adv-x="643" 
d="M46 0zM167 0q-59 0 -90 30.5t-31 91.5v451q0 24 9 46t25.5 39t38.5 27t48 10h309q25 0 47 -10t38.5 -26.5t26 -38.5t9.5 -47v-451q0 -122 -121 -122h-309zM473 124v447h-303v-447h303zM528 830q0 -33 -23.5 -56t-55.5 -23t-55 23t-23 56t23 55.5t55 22.5t55.5 -22.5
t23.5 -55.5zM285 830q0 -33 -23 -56t-55 -23q-34 0 -57 23t-23 56t23 55.5t57 22.5q32 0 55 -22.5t23 -55.5z" />
    <glyph glyph-name="multiply" unicode="&#xd7;" horiz-adv-x="487" 
d="M66 225l89 88l-89 89l89 88l88 -88l89 88l88 -88l-88 -89l88 -88l-88 -89l-89 89l-88 -89z" />
    <glyph glyph-name="Oslash" unicode="&#xd8;" horiz-adv-x="643" 
d="M167 0q-59 0 -90 30.5t-31 91.5v451q0 24 9 46t25.5 39t38.5 27t48 10h309q25 0 47 -10t38.5 -26.5t26 -38.5t9.5 -47v-451q0 -122 -121 -122h-309zM473 571l-237 -447h237v447zM407 571h-237v-447z" />
    <glyph glyph-name="Ugrave" unicode="&#xd9;" horiz-adv-x="635" 
d="M51 0zM584 125q0 -56 -35 -90.5t-90 -34.5h-283q-27 0 -50 9.5t-39.5 26t-26 39.5t-9.5 50v570h125v-570h283v570h125v-570zM401 733h-116l-150 194h133z" />
    <glyph glyph-name="Uacute" unicode="&#xda;" horiz-adv-x="635" 
d="M51 0zM584 125q0 -56 -35 -90.5t-90 -34.5h-283q-27 0 -50 9.5t-39.5 26t-26 39.5t-9.5 50v570h125v-570h283v570h125v-570zM372 927h133l-150 -194h-116z" />
    <glyph glyph-name="Ucircumflex" unicode="&#xdb;" horiz-adv-x="635" 
d="M51 0zM584 125q0 -56 -35 -90.5t-90 -34.5h-283q-27 0 -50 9.5t-39.5 26t-26 39.5t-9.5 50v570h125v-570h283v570h125v-570zM536 733h-126l-88 133l-83 -133h-134l132 194h166z" />
    <glyph glyph-name="Udieresis" unicode="&#xdc;" horiz-adv-x="635" 
d="M51 0zM584 125q0 -56 -35 -90.5t-90 -34.5h-283q-27 0 -50 9.5t-39.5 26t-26 39.5t-9.5 50v570h125v-570h283v570h125v-570zM526 830q0 -33 -23.5 -56t-55.5 -23t-55 23t-23 56t23 55.5t55 22.5t55.5 -22.5t23.5 -55.5zM283 830q0 -33 -23 -56t-55 -23q-34 0 -57 23
t-23 56t23 55.5t57 22.5q32 0 55 -22.5t23 -55.5z" />
    <glyph glyph-name="Yacute" unicode="&#xdd;" horiz-adv-x="586" 
d="M6 0zM579 695l-226 -452v-243h-126v243l-221 452h140l146 -314l150 314h137zM343 927h133l-150 -194h-116z" />
    <glyph glyph-name="Thorn" unicode="&#xde;" horiz-adv-x="709" 
d="M672 234q0 -125 -125 -125h-367v-109h-125v628h125v-106h367q26 0 49 -10t40 -27t26.5 -40t9.5 -49v-162zM547 396h-367v-162h367v162z" />
    <glyph glyph-name="germandbls" unicode="&#xdf;" horiz-adv-x="751" 
d="M469 493h115q66 0 95.5 -26.5t29.5 -73.5v-268q0 -125 -126 -125h-284v125h284v245h-239v313h-168v-683h-125v683q0 27 9.5 50t26 39.5t39.5 26t50 9.5h168q66 0 95.5 -35.5t29.5 -107.5v-172z" />
    <glyph glyph-name="agrave" unicode="&#xe0;" horiz-adv-x="721" 
d="M43 0zM670 0h-502q-27 0 -50 9.5t-39.5 26t-26 39.5t-9.5 50v126q0 55 35 90t90 35h376v126h-501v126h501q56 0 91 -35.5t35 -90.5v-502zM544 125v126h-376v-126h376zM437 659h-116l-150 194h133z" />
    <glyph glyph-name="aacute" unicode="&#xe1;" horiz-adv-x="721" 
d="M43 0zM670 0h-502q-27 0 -50 9.5t-39.5 26t-26 39.5t-9.5 50v126q0 55 35 90t90 35h376v126h-501v126h501q56 0 91 -35.5t35 -90.5v-502zM544 125v126h-376v-126h376zM404 853h133l-150 -194h-116z" />
    <glyph glyph-name="acircumflex" unicode="&#xe2;" horiz-adv-x="721" 
d="M43 0zM670 0h-502q-27 0 -50 9.5t-39.5 26t-26 39.5t-9.5 50v126q0 55 35 90t90 35h376v126h-501v126h501q56 0 91 -35.5t35 -90.5v-502zM544 125v126h-376v-126h376zM570 659h-126l-88 133l-83 -133h-134l132 194h166z" />
    <glyph glyph-name="atilde" unicode="&#xe3;" horiz-adv-x="721" 
d="M43 0zM670 0h-502q-27 0 -50 9.5t-39.5 26t-26 39.5t-9.5 50v126q0 55 35 90t90 35h376v126h-501v126h501q56 0 91 -35.5t35 -90.5v-502zM544 125v126h-376v-126h376zM555 752q-11 -21 -34 -37.5t-61 -16.5q-36 0 -61 7.5t-47.5 17t-47.5 17t-63 7.5q-32 0 -52.5 -12.5
t-34.5 -33.5v98q11 21 34 37.5t61 16.5q37 0 61.5 -7.5t47 -17t48 -17t63.5 -7.5q32 0 52.5 12.5t33.5 33.5v-98z" />
    <glyph glyph-name="adieresis" unicode="&#xe4;" horiz-adv-x="721" 
d="M43 0zM670 0h-502q-27 0 -50 9.5t-39.5 26t-26 39.5t-9.5 50v126q0 55 35 90t90 35h376v126h-501v126h501q56 0 91 -35.5t35 -90.5v-502zM544 125v126h-376v-126h376zM555 756q0 -33 -23.5 -56t-55.5 -23t-55 23t-23 56t23 55.5t55 22.5t55.5 -22.5t23.5 -55.5zM312 756
q0 -33 -23 -56t-55 -23q-34 0 -57 23t-23 56t23 55.5t57 22.5q32 0 55 -22.5t23 -55.5z" />
    <glyph glyph-name="aring" unicode="&#xe5;" horiz-adv-x="721" 
d="M43 0zM670 0h-502q-27 0 -50 9.5t-39.5 26t-26 39.5t-9.5 50v126q0 55 35 90t90 35h376v126h-501v126h501q56 0 91 -35.5t35 -90.5v-502zM544 125v126h-376v-126h376zM458 746q0 -22 -8.5 -41.5t-23.5 -34.5t-34.5 -23.5t-41.5 -8.5t-41.5 8.5t-34.5 23.5t-23.5 34.5
t-8.5 41.5t8.5 41.5t23.5 34t34.5 23t41.5 8.5t41.5 -8.5t34.5 -23t23.5 -34t8.5 -41.5zM391 746q0 17 -12 28.5t-29 11.5t-28.5 -11.5t-11.5 -28.5t11.5 -29t28.5 -12t29 12t12 29z" />
    <glyph glyph-name="ae" unicode="&#xe6;" horiz-adv-x="1185" 
d="M650 252v-127h466v-125h-948q-27 0 -50 9.5t-39.5 26t-26 39.5t-9.5 50v126q0 55 35 90t90 35h356v126h-481v126h980q27 0 50 -9.5t39.5 -26t25.5 -39.5t9 -50v-126q0 -57 -34 -91t-90 -34h-373zM524 125v126h-356v-126h356zM650 377h373v126h-373v-1v-125z" />
    <glyph glyph-name="ccedilla" unicode="&#xe7;" horiz-adv-x="677" 
d="M46 0zM652 0h-481q-125 0 -125 125v377q0 53 31.5 89.5t93.5 36.5h481v-126h-481v-377h481v-125zM455 -117q0 -57 -35.5 -99t-106.5 -57l-16 27q43 20 53 57q-33 0 -51 23.5t-18 51.5q0 38 23.5 63t64.5 25q33 0 59.5 -23t26.5 -68z" />
    <glyph glyph-name="egrave" unicode="&#xe8;" horiz-adv-x="705" 
d="M46 0zM170 252v-127h466v-125h-466q-27 0 -50 9.5t-39.5 26.5t-25.5 39.5t-9 49.5v378q0 55 32 90t92 35h373q27 0 50 -9.5t39.5 -26t25.5 -39.5t9 -50v-126q0 -57 -34 -91t-90 -34h-373zM543 377v126h-373v-126h373zM447 659h-116l-150 194h133z" />
    <glyph glyph-name="eacute" unicode="&#xe9;" horiz-adv-x="705" 
d="M46 0zM170 252v-127h466v-125h-466q-27 0 -50 9.5t-39.5 26.5t-25.5 39.5t-9 49.5v378q0 55 32 90t92 35h373q27 0 50 -9.5t39.5 -26t25.5 -39.5t9 -50v-126q0 -57 -34 -91t-90 -34h-373zM543 377v126h-373v-126h373zM415 853h133l-150 -194h-116z" />
    <glyph glyph-name="ecircumflex" unicode="&#xea;" horiz-adv-x="705" 
d="M46 0zM170 252v-127h466v-125h-466q-27 0 -50 9.5t-39.5 26.5t-25.5 39.5t-9 49.5v378q0 55 32 90t92 35h373q27 0 50 -9.5t39.5 -26t25.5 -39.5t9 -50v-126q0 -57 -34 -91t-90 -34h-373zM543 377v126h-373v-126h373zM580 659h-126l-88 133l-83 -133h-134l132 194h166z
" />
    <glyph glyph-name="edieresis" unicode="&#xeb;" horiz-adv-x="705" 
d="M46 0zM170 252v-127h466v-125h-466q-27 0 -50 9.5t-39.5 26.5t-25.5 39.5t-9 49.5v378q0 55 32 90t92 35h373q27 0 50 -9.5t39.5 -26t25.5 -39.5t9 -50v-126q0 -57 -34 -91t-90 -34h-373zM543 377v126h-373v-126h373zM565 756q0 -33 -23.5 -56t-55.5 -23t-55 23t-23 56
t23 55.5t55 22.5t55.5 -22.5t23.5 -55.5zM322 756q0 -33 -23 -56t-55 -23q-34 0 -57 23t-23 56t23 55.5t57 22.5q32 0 55 -22.5t23 -55.5z" />
    <glyph glyph-name="igrave" unicode="&#xec;" horiz-adv-x="267" 
d="M0 0zM212 0h-125v628h125v-628zM234 659h-116l-150 194h133z" />
    <glyph glyph-name="iacute" unicode="&#xed;" horiz-adv-x="271" 
d="M36 0zM180 0h-125v628h125v-628zM169 853h133l-150 -194h-116z" />
    <glyph glyph-name="icircumflex" unicode="&#xee;" horiz-adv-x="343" 
d="M0 0zM234 0h-125v628h125v-628zM388 659h-126l-88 133l-83 -133h-134l132 194h166z" />
    <glyph glyph-name="idieresis" unicode="&#xef;" horiz-adv-x="343" 
d="M0 0zM234 0h-125v628h125v-628zM373 756q0 -33 -23.5 -56t-55.5 -23t-55 23t-23 56t23 55.5t55 22.5t55.5 -22.5t23.5 -55.5zM130 756q0 -33 -23 -56t-55 -23q-34 0 -57 23t-23 56t23 55.5t57 22.5q32 0 55 -22.5t23 -55.5z" />
    <glyph glyph-name="eth" unicode="&#xf0;" horiz-adv-x="728" 
d="M55 251q0 25 10.5 47.5t27.5 40t40 27.5t49 10h376v126h-320v-73h-79v73h-104v126h104v78h79v-78h320q27 0 49.5 -9.5t39 -26t26 -40t9.5 -50.5v-377q0 -27 -9.5 -49.5t-26 -39.5t-39 -26.5t-49.5 -9.5h-376q-62 0 -94.5 33t-32.5 92v126zM558 125v126h-376v-126h376z
" />
    <glyph glyph-name="ntilde" unicode="&#xf1;" horiz-adv-x="700" 
d="M55 0zM650 0h-126v502h-344v-502h-125v628h469q126 0 126 -126v-502zM555 752q-11 -21 -34 -37.5t-61 -16.5q-36 0 -61 7.5t-47.5 17t-47.5 17t-63 7.5q-32 0 -52.5 -12.5t-34.5 -33.5v98q11 21 34 37.5t61 16.5q37 0 61.5 -7.5t47 -17t48 -17t63.5 -7.5q32 0 52.5 12.5
t33.5 33.5v-98z" />
    <glyph glyph-name="ograve" unicode="&#xf2;" horiz-adv-x="718" 
d="M46 0zM444 659h-116l-150 194h133zM672 125q0 -125 -125 -125h-376q-125 0 -125 125v377q0 27 10 50t27.5 40t40 26.5t47.5 9.5h376q26 0 48.5 -10t39.5 -27t27 -40t10 -49v-377zM547 125v377h-376v-377h376z" />
    <glyph glyph-name="oacute" unicode="&#xf3;" horiz-adv-x="718" 
d="M46 0zM672 125q0 -125 -125 -125h-376q-125 0 -125 125v377q0 27 10 50t27.5 40t40 26.5t47.5 9.5h376q26 0 48.5 -10t39.5 -27t27 -40t10 -49v-377zM547 125v377h-376v-377h376zM411 853h133l-150 -194h-116z" />
    <glyph glyph-name="ocircumflex" unicode="&#xf4;" horiz-adv-x="718" 
d="M46 0zM577 659h-126l-88 133l-83 -133h-134l132 194h166zM672 125q0 -125 -125 -125h-376q-125 0 -125 125v377q0 27 10 50t27.5 40t40 26.5t47.5 9.5h376q26 0 48.5 -10t39.5 -27t27 -40t10 -49v-377zM547 125v377h-376v-377h376z" />
    <glyph glyph-name="otilde" unicode="&#xf5;" horiz-adv-x="718" 
d="M46 0zM562 752q-11 -21 -34 -37.5t-61 -16.5q-36 0 -61 7.5t-47.5 17t-47.5 17t-63 7.5q-32 0 -52.5 -12.5t-34.5 -33.5v98q11 21 34 37.5t61 16.5q37 0 61.5 -7.5t47 -17t48 -17t63.5 -7.5q32 0 52.5 12.5t33.5 33.5v-98zM672 125q0 -125 -125 -125h-376
q-125 0 -125 125v377q0 27 10 50t27.5 40t40 26.5t47.5 9.5h376q26 0 48.5 -10t39.5 -27t27 -40t10 -49v-377zM547 125v377h-376v-377h376z" />
    <glyph glyph-name="odieresis" unicode="&#xf6;" horiz-adv-x="718" 
d="M46 0zM562 756q0 -33 -23.5 -56t-55.5 -23t-55 23t-23 56t23 55.5t55 22.5t55.5 -22.5t23.5 -55.5zM319 756q0 -33 -23 -56t-55 -23q-34 0 -57 23t-23 56t23 55.5t57 22.5q32 0 55 -22.5t23 -55.5zM672 125q0 -125 -125 -125h-376q-125 0 -125 125v377q0 27 10 50
t27.5 40t40 26.5t47.5 9.5h376q26 0 48.5 -10t39.5 -27t27 -40t10 -49v-377zM547 125v377h-376v-377h376z" />
    <glyph glyph-name="divide" unicode="&#xf7;" horiz-adv-x="487" 
d="M55 0zM55 251v125h376v-125h-376zM330 555q0 -18 -7 -34t-19 -27.5t-27.5 -18.5t-33.5 -7q-36 0 -61.5 25.5t-25.5 61.5t25.5 60.5t61.5 24.5q18 0 33.5 -6.5t27.5 -18t19 -27t7 -33.5zM330 76q0 -18 -7 -34t-19 -27.5t-27.5 -18.5t-33.5 -7q-36 0 -61.5 25.5t-25.5 61.5
t25.5 60.5t61.5 24.5q18 0 33.5 -6.5t27.5 -18t19 -27t7 -33.5z" />
    <glyph glyph-name="oslash" unicode="&#xf8;" horiz-adv-x="718" 
d="M672 125q0 -125 -125 -125h-376q-125 0 -125 125v377q0 27 10 50t27.5 40t40 26.5t47.5 9.5h376q26 0 48.5 -10t39.5 -27t27 -40t10 -49v-377zM232 125l203 377h-264v-377h61zM489 502l-203 -377h261v377h-58z" />
    <glyph glyph-name="ugrave" unicode="&#xf9;" horiz-adv-x="728" 
d="M51 0zM447 659h-116l-150 194h133zM677 125q0 -56 -34.5 -90.5t-90.5 -34.5h-377q-27 0 -50 9.5t-39.5 26t-25.5 39.5t-9 50v503h124v-503h377v503h125v-503z" />
    <glyph glyph-name="uacute" unicode="&#xfa;" horiz-adv-x="728" 
d="M51 0zM677 125q0 -56 -34.5 -90.5t-90.5 -34.5h-377q-27 0 -50 9.5t-39.5 26t-25.5 39.5t-9 50v503h124v-503h377v503h125v-503zM414 853h133l-150 -194h-116z" />
    <glyph glyph-name="ucircumflex" unicode="&#xfb;" horiz-adv-x="728" 
d="M51 0zM579 659h-126l-88 133l-83 -133h-134l132 194h166zM677 125q0 -56 -34.5 -90.5t-90.5 -34.5h-377q-27 0 -50 9.5t-39.5 26t-25.5 39.5t-9 50v503h124v-503h377v503h125v-503z" />
    <glyph glyph-name="udieresis" unicode="&#xfc;" horiz-adv-x="728" 
d="M51 0zM564 756q0 -33 -23.5 -56t-55.5 -23t-55 23t-23 56t23 55.5t55 22.5t55.5 -22.5t23.5 -55.5zM321 756q0 -33 -23 -56t-55 -23q-34 0 -57 23t-23 56t23 55.5t57 22.5q32 0 55 -22.5t23 -55.5zM677 125q0 -56 -34.5 -90.5t-90.5 -34.5h-377q-27 0 -50 9.5t-39.5 26
t-25.5 39.5t-9 50v503h124v-503h377v503h125v-503z" />
    <glyph glyph-name="yacute" unicode="&#xfd;" horiz-adv-x="650" 
d="M11 0zM157 628l164 -449l181 449h137l-336 -836h-140l89 218l-241 618h146zM372 853h133l-150 -194h-116z" />
    <glyph glyph-name="thorn" unicode="&#xfe;" horiz-adv-x="718" 
d="M672 125q0 -125 -125 -125h-367v-208h-125v1016h125v-180h367q125 0 125 -126v-377zM547 502h-367v-377h367v377z" />
    <glyph glyph-name="ydieresis" unicode="&#xff;" horiz-adv-x="650" 
d="M11 0zM157 628l164 -449l181 449h137l-336 -836h-140l89 218l-241 618h146zM522 756q0 -33 -23.5 -56t-55.5 -23t-55 23t-23 56t23 55.5t55 22.5t55.5 -22.5t23.5 -55.5zM279 756q0 -33 -23 -56t-55 -23q-34 0 -57 23t-23 56t23 55.5t57 22.5q32 0 55 -22.5t23 -55.5z
" />
    <glyph glyph-name="Amacron" unicode="&#x100;" 
d="M51 0zM583 0h-124v308h-284v-308h-124v587q0 45 29 76.5t77 31.5h320q22 0 41.5 -8t33.5 -22t22.5 -34t8.5 -44v-587zM459 433v136h-284v-136h284zM522 780h-400v114h400v-114z" />
    <glyph glyph-name="amacron" unicode="&#x101;" horiz-adv-x="721" 
d="M43 0zM670 0h-502q-27 0 -50 9.5t-39.5 26t-26 39.5t-9.5 50v126q0 55 35 90t90 35h376v126h-501v126h501q56 0 91 -35.5t35 -90.5v-502zM544 125v126h-376v-126h376zM554 706h-400v114h400v-114z" />
    <glyph glyph-name="Abreve" unicode="&#x102;" 
d="M51 0zM583 0h-124v308h-284v-308h-124v587q0 45 29 76.5t77 31.5h320q22 0 41.5 -8t33.5 -22t22.5 -34t8.5 -44v-587zM459 433v136h-284v-136h284zM524 840q0 -48 -29 -76.5t-76 -28.5h-204q-45 0 -74.5 29.5t-29.5 75.5v87h104v-98h204v98h105v-87z" />
    <glyph glyph-name="abreve" unicode="&#x103;" horiz-adv-x="721" 
d="M43 0zM670 0h-502q-27 0 -50 9.5t-39.5 26t-26 39.5t-9.5 50v126q0 55 35 90t90 35h376v126h-501v126h501q56 0 91 -35.5t35 -90.5v-502zM544 125v126h-376v-126h376zM561 766q0 -48 -29 -76.5t-76 -28.5h-204q-45 0 -74.5 29.5t-29.5 75.5v87h104v-98h204v98h105v-87z
" />
    <glyph glyph-name="Aogonek" unicode="&#x104;" 
d="M583 0l-146 -112q-12 -9 -14.5 -13.5t-2.5 -15.5v-6h163v-126h-197q-51 0 -71.5 20.5t-20.5 58.5v21q0 17 3 30t10.5 25.5t21.5 25t36 27.5l94 65v308h-284v-308h-124v587q0 45 29 76.5t77 31.5h320q22 0 41.5 -8t33.5 -22t22.5 -34t8.5 -44v-587zM459 433v136h-284v-136
h284z" />
    <glyph glyph-name="aogonek" unicode="&#x105;" horiz-adv-x="721" 
d="M670 -273h-197q-51 0 -71.5 20.5t-20.5 58.5v21q0 17 3 30t11 25t21.5 24.5t35.5 28.5l92 65h-376q-27 0 -50 9.5t-39.5 26t-26 39.5t-9.5 50v126q0 55 35 90t90 35h376v126h-501v126h501q56 0 91 -35.5t35 -90.5v-502l-146 -112q-12 -9 -14.5 -13.5t-2.5 -15.5v-6h163
v-126zM544 125v126h-376v-126h376z" />
    <glyph glyph-name="Cacute" unicode="&#x106;" horiz-adv-x="587" 
d="M46 0zM562 0h-390q-126 0 -126 125v445q0 54 31.5 89.5t94.5 35.5h390v-125h-390v-445h390v-125zM398 927h133l-150 -194h-116z" />
    <glyph glyph-name="cacute" unicode="&#x107;" horiz-adv-x="677" 
d="M46 0zM652 0h-481q-125 0 -125 125v377q0 53 31.5 89.5t93.5 36.5h481v-126h-481v-377h481v-125zM418 853h133l-150 -194h-116z" />
    <glyph glyph-name="Cdotaccent" unicode="&#x10a;" horiz-adv-x="587" 
d="M46 0zM562 0h-390q-126 0 -126 125v445q0 54 31.5 89.5t94.5 35.5h390v-125h-390v-445h390v-125zM419 830q0 -33 -23 -56t-55 -23q-34 0 -57 23t-23 56t23 55.5t57 22.5q32 0 55 -22.5t23 -55.5z" />
    <glyph glyph-name="cdotaccent" unicode="&#x10b;" horiz-adv-x="677" 
d="M46 0zM652 0h-481q-125 0 -125 125v377q0 53 31.5 89.5t93.5 36.5h481v-126h-481v-377h481v-125zM464 756q0 -33 -23 -56t-55 -23q-34 0 -57 23t-23 56t23 55.5t57 22.5q32 0 55 -22.5t23 -55.5z" />
    <glyph glyph-name="Ccaron" unicode="&#x10c;" horiz-adv-x="587" 
d="M46 0zM562 0h-390q-126 0 -126 125v445q0 54 31.5 89.5t94.5 35.5h390v-125h-390v-445h390v-125zM133 927h126l88 -132l83 132h134l-132 -194h-166z" />
    <glyph glyph-name="ccaron" unicode="&#x10d;" horiz-adv-x="677" 
d="M46 0zM652 0h-481q-125 0 -125 125v377q0 53 31.5 89.5t93.5 36.5h481v-126h-481v-377h481v-125zM164 853h126l88 -132l83 132h134l-132 -194h-166z" />
    <glyph glyph-name="Dcaron" unicode="&#x10e;" 
d="M55 0zM588 125q0 -125 -125 -125h-408v695h408q26 0 48.5 -10t39.5 -27t27 -39.5t10 -48.5v-445zM463 125v445h-281v-445h281zM129 927h126l88 -132l83 132h134l-132 -194h-166z" />
    <glyph glyph-name="dcaron" unicode="&#x10f;" horiz-adv-x="845" 
d="M46 0zM662 0h-491q-55 0 -90 34.5t-35 90.5v380q0 26 10 48.5t27.5 39t40 26t47.5 9.5h366v180h125v-808zM537 125v377h-366v-377h366zM872 717q0 -57 -35.5 -99t-106.5 -57l-16 27q43 20 53 57q-33 0 -51 23.5t-18 51.5q0 38 23.5 63t64.5 25q33 0 59.5 -23t26.5 -68z
" />
    <glyph glyph-name="Dcroat" unicode="&#x110;" 
d="M0 0zM0 431h55v264h408q26 0 48.5 -10t39.5 -27t27 -39.5t10 -48.5v-445q0 -125 -125 -125h-408v306h-55v125zM463 125v445h-281v-139h126v-125h-126v-181h281z" />
    <glyph glyph-name="dcroat" unicode="&#x111;" horiz-adv-x="717" 
d="M662 0h-491q-55 0 -90 34.5t-35 90.5v380q0 26 10 48.5t27.5 39t40 26t47.5 9.5h366v66h-275v114h400v-808zM537 125v377h-366v-377h366z" />
    <glyph glyph-name="Emacron" unicode="&#x112;" horiz-adv-x="524" 
d="M55 0zM490 0h-435v695h434v-125h-309v-139h308v-125h-308v-181h310v-125zM483 780h-400v114h400v-114z" />
    <glyph glyph-name="emacron" unicode="&#x113;" horiz-adv-x="705" 
d="M46 0zM170 252v-127h466v-125h-466q-27 0 -50 9.5t-39.5 26.5t-25.5 39.5t-9 49.5v378q0 55 32 90t92 35h373q27 0 50 -9.5t39.5 -26t25.5 -39.5t9 -50v-126q0 -57 -34 -91t-90 -34h-373zM543 377v126h-373v-126h373zM563 706h-400v114h400v-114z" />
    <glyph glyph-name="Ebreve" unicode="&#x114;" horiz-adv-x="524" 
d="M55 0zM490 0h-435v695h434v-125h-309v-139h308v-125h-308v-181h310v-125zM492 840q0 -48 -29 -76.5t-76 -28.5h-204q-45 0 -74.5 29.5t-29.5 75.5v87h104v-98h204v98h105v-87z" />
    <glyph glyph-name="ebreve" unicode="&#x115;" horiz-adv-x="705" 
d="M46 0zM170 252v-127h466v-125h-466q-27 0 -50 9.5t-39.5 26.5t-25.5 39.5t-9 49.5v378q0 55 32 90t92 35h373q27 0 50 -9.5t39.5 -26t25.5 -39.5t9 -50v-126q0 -57 -34 -91t-90 -34h-373zM543 377v126h-373v-126h373zM572 766q0 -48 -29 -76.5t-76 -28.5h-204
q-45 0 -74.5 29.5t-29.5 75.5v87h104v-98h204v98h105v-87z" />
    <glyph glyph-name="Edotaccent" unicode="&#x116;" horiz-adv-x="524" 
d="M55 0zM490 0h-435v695h434v-125h-309v-139h308v-125h-308v-181h310v-125zM370 830q0 -33 -23 -56t-55 -23q-34 0 -57 23t-23 56t23 55.5t57 22.5q32 0 55 -22.5t23 -55.5z" />
    <glyph glyph-name="edotaccent" unicode="&#x117;" horiz-adv-x="705" 
d="M46 0zM170 252v-127h466v-125h-466q-27 0 -50 9.5t-39.5 26.5t-25.5 39.5t-9 49.5v378q0 55 32 90t92 35h373q27 0 50 -9.5t39.5 -26t25.5 -39.5t9 -50v-126q0 -57 -34 -91t-90 -34h-373zM543 377v126h-373v-126h373zM441 756q0 -33 -23 -56t-55 -23q-34 0 -57 23t-23 56
t23 55.5t57 22.5q32 0 55 -22.5t23 -55.5z" />
    <glyph glyph-name="Eogonek" unicode="&#x118;" horiz-adv-x="524" 
d="M490 0l-146 -112q-12 -9 -14.5 -13.5t-2.5 -15.5v-6h163v-126h-197q-51 0 -71.5 20.5t-20.5 58.5v21q0 17 3 30t11 25t21.5 24.5t35.5 28.5l92 65h-309v695h434v-125h-309v-139h308v-125h-308v-181h310v-125z" />
    <glyph glyph-name="eogonek" unicode="&#x119;" horiz-adv-x="705" 
d="M636 -273h-197q-51 0 -71.5 20.5t-20.5 58.5v21q0 17 3 30t11 25t21.5 24.5t35.5 28.5l92 65h-340q-27 0 -50 9.5t-39.5 26.5t-25.5 39.5t-9 49.5v378q0 55 32 90t92 35h373q27 0 50 -9.5t39.5 -26t25.5 -39.5t9 -50v-126q0 -57 -34 -91t-90 -34h-373v-127h466v-125
l-146 -112q-12 -9 -14.5 -13.5t-2.5 -15.5v-6h163v-126zM543 377v126h-373v-126h373z" />
    <glyph glyph-name="Ecaron" unicode="&#x11a;" horiz-adv-x="524" 
d="M55 0zM490 0h-435v695h434v-125h-309v-139h308v-125h-308v-181h310v-125zM79 927h126l88 -132l83 132h134l-132 -194h-166z" />
    <glyph glyph-name="ecaron" unicode="&#x11b;" horiz-adv-x="705" 
d="M46 0zM170 252v-127h466v-125h-466q-27 0 -50 9.5t-39.5 26.5t-25.5 39.5t-9 49.5v378q0 55 32 90t92 35h373q27 0 50 -9.5t39.5 -26t25.5 -39.5t9 -50v-126q0 -57 -34 -91t-90 -34h-373zM543 377v126h-373v-126h373zM147 853h126l88 -132l83 132h134l-132 -194h-166z
" />
    <glyph glyph-name="Gbreve" unicode="&#x11e;" horiz-adv-x="631" 
d="M46 0zM581 0h-409q-126 0 -126 125v445q0 54 32.5 89.5t93.5 35.5h388v-125h-388v-445h283v186h-194v122h320v-433zM547 840q0 -48 -29 -76.5t-76 -28.5h-204q-45 0 -74.5 29.5t-29.5 75.5v87h104v-98h204v98h105v-87z" />
    <glyph glyph-name="gbreve" unicode="&#x11f;" horiz-adv-x="729" 
d="M46 0zM674 -82q0 -126 -126 -126h-213v126h213v82h-376q-26 0 -49 9.5t-40 26t-27 38.5t-10 48v380q0 56 34.5 91t91.5 35h502v-710zM548 125v377h-376v-377h376zM580 766q0 -48 -29 -76.5t-76 -28.5h-204q-45 0 -74.5 29.5t-29.5 75.5v87h104v-98h204v98h105v-87z" />
    <glyph glyph-name="Gdotaccent" unicode="&#x120;" horiz-adv-x="631" 
d="M46 0zM581 0h-409q-126 0 -126 125v445q0 54 32.5 89.5t93.5 35.5h388v-125h-388v-445h283v186h-194v122h320v-433zM415 830q0 -33 -23 -56t-55 -23q-34 0 -57 23t-23 56t23 55.5t57 22.5q32 0 55 -22.5t23 -55.5z" />
    <glyph glyph-name="gdotaccent" unicode="&#x121;" horiz-adv-x="729" 
d="M46 0zM674 -82q0 -126 -126 -126h-213v126h213v82h-376q-26 0 -49 9.5t-40 26t-27 38.5t-10 48v380q0 56 34.5 91t91.5 35h502v-710zM548 125v377h-376v-377h376zM463 756q0 -33 -23 -56t-55 -23q-34 0 -57 23t-23 56t23 55.5t57 22.5q32 0 55 -22.5t23 -55.5z" />
    <glyph glyph-name="Gcommaaccent" unicode="&#x122;" horiz-adv-x="631" 
d="M46 0zM581 0h-409q-126 0 -126 125v445q0 54 32.5 89.5t93.5 35.5h388v-125h-388v-445h283v186h-194v122h320v-433zM417 -117q0 -57 -35.5 -99t-106.5 -57l-16 27q43 20 53 57q-33 0 -51 23.5t-18 51.5q0 38 23.5 63t64.5 25q33 0 59.5 -23t26.5 -68z" />
    <glyph glyph-name="gcommaaccent" unicode="&#x123;" horiz-adv-x="729" 
d="M46 0zM674 -82q0 -126 -126 -126h-213v126h213v82h-376q-26 0 -49 9.5t-40 26t-27 38.5t-10 48v380q0 56 34.5 91t91.5 35h502v-710zM548 125v377h-376v-377h376zM275.014 762.993q0 56.9961 35.498 98.9932q35.498 41.998 106.493 56.9971l15.999 -26.998
q-42.9971 -19.999 -52.9961 -56.9971q32.998 0 50.9971 -23.498q17.998 -23.499 17.998 -51.4971q0 -37.998 -23.498 -62.9961q-23.499 -24.999 -64.4961 -24.999q-32.998 0 -59.4961 22.999q-26.499 22.999 -26.499 67.9961z" />
    <glyph glyph-name="Hbar" unicode="&#x126;" horiz-adv-x="624" 
d="M569 0h-126v267h-261v-267h-127v695h127v-102h261v102h126v-695zM443 392v96h-261v-96h261z" />
    <glyph glyph-name="hbar" unicode="&#x127;" horiz-adv-x="733" 
d="M455 694h-275v-66h376q126 0 126 -126v-502h-126v502h-376v-502h-125v808h400v-114z" />
    <glyph glyph-name="uni012A" unicode="&#x12a;" horiz-adv-x="279" 
d="M0 0zM202 0h-125v695h125v-695zM341 780h-400v114h400v-114z" />
    <glyph glyph-name="imacron" unicode="&#x12b;" horiz-adv-x="328" 
d="M0 0zM226 0h-125v628h125v-628zM365 706h-400v114h400v-114z" />
    <glyph glyph-name="Ibreve" unicode="&#x12c;" horiz-adv-x="294" 
d="M0 0zM209 0h-125v695h125v-695zM354 840q0 -48 -29 -76.5t-76 -28.5h-204q-45 0 -74.5 29.5t-29.5 75.5v87h104v-98h204v98h105v-87z" />
    <glyph glyph-name="ibreve" unicode="&#x12d;" horiz-adv-x="341" 
d="M0 0zM233 0h-125v628h125v-628zM378 766q0 -48 -29 -76.5t-76 -28.5h-204q-45 0 -74.5 29.5t-29.5 75.5v87h104v-98h204v98h105v-87z" />
    <glyph glyph-name="Iogonek" unicode="&#x12e;" horiz-adv-x="235" 
d="M180 -273h-197q-51 0 -71.5 20.5t-20.5 58.5v21q0 17 3 30t11 25t21.5 24.5t35.5 28.5l93 65v695h125v-695l-146 -112q-12 -9 -14.5 -13.5t-2.5 -15.5v-6h163v-126z" />
    <glyph glyph-name="iogonek" unicode="&#x12f;" horiz-adv-x="235" 
d="M180 -273h-197q-51 0 -71.5 20.5t-20.5 58.5v21q0 17 3 30t11 25t21.5 24.5t35.5 28.5l93 65v628h125v-628l-146 -112q-12 -9 -14.5 -13.5t-2.5 -15.5v-6h163v-126z" />
    <glyph glyph-name="Idotaccent" unicode="&#x130;" horiz-adv-x="235" 
d="M40 0zM180 0h-125v695h125v-695zM198 830q0 -33 -23 -56t-55 -23q-34 0 -57 23t-23 56t23 55.5t57 22.5q32 0 55 -22.5t23 -55.5z" />
    <glyph glyph-name="dotlessi" unicode="&#x131;" horiz-adv-x="235" 
d="M55 0zM180 0h-125v628h125v-628z" />
    <glyph glyph-name="IJ" unicode="&#x132;" horiz-adv-x="847" 
d="M55 0zM180 0h-125v695h125v-695zM792 0h-411q-125 0 -125 125v126h125v-126h285v570h126v-695z" />
    <glyph glyph-name="ij" unicode="&#x133;" horiz-adv-x="486" 
d="M55 0zM180 0h-125v628h125v-628zM430 -82q0 -57 -34.5 -91.5t-90.5 -34.5h-125v126h125v710h125v-710z" />
    <glyph glyph-name="Kcommaaccent" unicode="&#x136;" horiz-adv-x="618" 
d="M55 0zM610 0h-164l-266 303v-303h-125v695h125v-287l260 287h162l-311 -337zM391 -117q0 -57 -35.5 -99t-106.5 -57l-16 27q43 20 53 57q-33 0 -51 23.5t-18 51.5q0 38 23.5 63t64.5 25q33 0 59.5 -23t26.5 -68z" />
    <glyph glyph-name="kcommaaccent" unicode="&#x137;" horiz-adv-x="692" 
d="M55 0zM413 -117q0 -57 -35.5 -99t-106.5 -57l-16 27q43 20 53 57q-33 0 -51 23.5t-18 51.5q0 38 23.5 63t64.5 25q33 0 59.5 -23t26.5 -68zM684 0h-192l-312 274v-274h-125v808h125v-439l304 259h190l-363 -305z" />
    <glyph glyph-name="Lacute" unicode="&#x139;" horiz-adv-x="496" 
d="M55 0zM480 0h-425v695h126v-570h299v-125zM236 927h133l-150 -194h-116z" />
    <glyph glyph-name="lacute" unicode="&#x13a;" horiz-adv-x="237" 
d="M189 927h133l-140 -181v-746h-127v733z" />
    <glyph glyph-name="Lcommaaccent" unicode="&#x13b;" horiz-adv-x="496" 
d="M55 0zM480 0h-425v695h126v-570h299v-125zM364 -117q0 -57 -35.5 -99t-106.5 -57l-16 27q43 20 53 57q-33 0 -51 23.5t-18 51.5q0 38 23.5 63t64.5 25q33 0 59.5 -23t26.5 -68z" />
    <glyph glyph-name="lcommaaccent" unicode="&#x13c;" horiz-adv-x="237" 
d="M35 0zM182 0h-127v808h127v-808zM209 -117q0 -57 -35.5 -99t-106.5 -57l-16 27q43 20 53 57q-33 0 -51 23.5t-18 51.5q0 38 23.5 63t64.5 25q33 0 59.5 -23t26.5 -68z" />
    <glyph glyph-name="Lcaron" unicode="&#x13d;" horiz-adv-x="496" 
d="M55 0zM480 0h-425v695h126v-570h299v-125zM403 611q0 -57 -35.5 -99t-106.5 -57l-16 27q43 20 53 57q-33 0 -51 23.5t-18 51.5q0 38 23.5 63t64.5 25q33 0 59.5 -23t26.5 -68z" />
    <glyph glyph-name="lcaron" unicode="&#x13e;" horiz-adv-x="365" 
d="M55 0zM182 0h-127v808h127v-808zM386 717q0 -57 -35.5 -99t-106.5 -57l-16 27q43 20 53 57q-33 0 -51 23.5t-18 51.5q0 38 23.5 63t64.5 25q33 0 59.5 -23t26.5 -68z" />
    <glyph glyph-name="Ldot" unicode="&#x13f;" horiz-adv-x="496" 
d="M55 0zM480 0h-425v695h126v-570h299v-125zM393 318q0 -33 -23 -56t-55 -23q-34 0 -57 23t-23 56t23 55.5t57 22.5q32 0 55 -22.5t23 -55.5z" />
    <glyph glyph-name="ldot" unicode="&#x140;" horiz-adv-x="348" 
d="M55 0zM182 0h-127v808h127v-808zM371 388q0 -33 -23 -56t-55 -23q-34 0 -57 23t-23 56t23 55.5t57 22.5q32 0 55 -22.5t23 -55.5z" />
    <glyph glyph-name="Lslash" unicode="&#x141;" horiz-adv-x="496" 
d="M480 0h-425v695h126v-219l151 62v-125l-151 -62v-226h299v-125z" />
    <glyph glyph-name="lslash" unicode="&#x142;" horiz-adv-x="351" 
d="M239 513l92 38v-125l-92 -38v-388h-127v336l-92 -37v125l92 38v346h127v-295z" />
    <glyph glyph-name="Nacute" unicode="&#x143;" horiz-adv-x="656" 
d="M55 0zM601 0h-96l-323 466v-466h-127v695h125l296 -442v442h125v-695zM398 927h133l-150 -194h-116z" />
    <glyph glyph-name="nacute" unicode="&#x144;" horiz-adv-x="700" 
d="M55 0zM650 0h-126v502h-344v-502h-125v628h469q126 0 126 -126v-502zM418 853h133l-150 -194h-116z" />
    <glyph glyph-name="Ncommaaccent" unicode="&#x145;" horiz-adv-x="656" 
d="M55 0zM601 0h-96l-323 466v-466h-127v695h125l296 -442v442h125v-695zM435 -117q0 -57 -35.5 -99t-106.5 -57l-16 27q43 20 53 57q-33 0 -51 23.5t-18 51.5q0 38 23.5 63t64.5 25q33 0 59.5 -23t26.5 -68z" />
    <glyph glyph-name="ncommaaccent" unicode="&#x146;" horiz-adv-x="700" 
d="M55 0zM650 0h-126v502h-344v-502h-125v628h469q126 0 126 -126v-502zM449 -117q0 -57 -35.5 -99t-106.5 -57l-16 27q43 20 53 57q-33 0 -51 23.5t-18 51.5q0 38 23.5 63t64.5 25q33 0 59.5 -23t26.5 -68z" />
    <glyph glyph-name="Ncaron" unicode="&#x147;" horiz-adv-x="656" 
d="M55 0zM601 0h-96l-323 466v-466h-127v695h125l296 -442v442h125v-695zM123 927h126l88 -132l83 132h134l-132 -194h-166z" />
    <glyph glyph-name="ncaron" unicode="&#x148;" horiz-adv-x="700" 
d="M55 0zM650 0h-126v502h-344v-502h-125v628h469q126 0 126 -126v-502zM143 853h126l88 -132l83 132h134l-132 -194h-166z" />
    <glyph glyph-name="Eng" unicode="&#x14a;" horiz-adv-x="656" 
d="M601 -273h-421q-125 0 -125 125v96h127v-96h293v191l-293 423v-436h-127v665h125l296 -442v442h125v-968z" />
    <glyph glyph-name="eng" unicode="&#x14b;" horiz-adv-x="700" 
d="M650 -273h-470q-125 0 -125 125v96h127v-96h342v650h-344v-472h-125v598h469q126 0 126 -126v-775z" />
    <glyph glyph-name="Omacron" unicode="&#x14c;" horiz-adv-x="643" 
d="M46 0zM167 0q-59 0 -90 30.5t-31 91.5v451q0 24 9 46t25.5 39t38.5 27t48 10h309q25 0 47 -10t38.5 -26.5t26 -38.5t9.5 -47v-451q0 -122 -121 -122h-309zM473 124v447h-303v-447h303zM525 780h-400v114h400v-114z" />
    <glyph glyph-name="omacron" unicode="&#x14d;" horiz-adv-x="718" 
d="M46 0zM672 125q0 -125 -125 -125h-376q-125 0 -125 125v377q0 27 10 50t27.5 40t40 26.5t47.5 9.5h376q26 0 48.5 -10t39.5 -27t27 -40t10 -49v-377zM547 125v377h-376v-377h376zM561 706h-400v114h400v-114z" />
    <glyph glyph-name="Obreve" unicode="&#x14e;" horiz-adv-x="643" 
d="M46 0zM167 0q-59 0 -90 30.5t-31 91.5v451q0 24 9 46t25.5 39t38.5 27t48 10h309q25 0 47 -10t38.5 -26.5t26 -38.5t9.5 -47v-451q0 -122 -121 -122h-309zM473 124v447h-303v-447h303zM532 840q0 -48 -29 -76.5t-76 -28.5h-204q-45 0 -74.5 29.5t-29.5 75.5v87h104v-98
h204v98h105v-87z" />
    <glyph glyph-name="obreve" unicode="&#x14f;" horiz-adv-x="718" 
d="M46 0zM672 125q0 -125 -125 -125h-376q-125 0 -125 125v377q0 27 10 50t27.5 40t40 26.5t47.5 9.5h376q26 0 48.5 -10t39.5 -27t27 -40t10 -49v-377zM547 125v377h-376v-377h376zM568 766q0 -48 -29 -76.5t-76 -28.5h-204q-45 0 -74.5 29.5t-29.5 75.5v87h104v-98h204v98
h105v-87z" />
    <glyph glyph-name="Ohungarumlaut" unicode="&#x150;" horiz-adv-x="643" 
d="M46 0zM167 0q-59 0 -90 30.5t-31 91.5v451q0 24 9 46t25.5 39t38.5 27t48 10h309q25 0 47 -10t38.5 -26.5t26 -38.5t9.5 -47v-451q0 -122 -121 -122h-309zM473 124v447h-303v-447h303zM487 927h133l-149 -194h-117zM266 927h133l-150 -194h-116z" />
    <glyph glyph-name="ohungarumlaut" unicode="&#x151;" horiz-adv-x="718" 
d="M46 0zM672 125q0 -125 -125 -125h-376q-125 0 -125 125v377q0 27 10 50t27.5 40t40 26.5t47.5 9.5h376q26 0 48.5 -10t39.5 -27t27 -40t10 -49v-377zM547 125v377h-376v-377h376zM522 853h133l-149 -194h-117zM301 853h133l-150 -194h-116z" />
    <glyph glyph-name="OE" unicode="&#x152;" horiz-adv-x="935" 
d="M880 0h-704q-59 0 -90 30.5t-31 91.5v451q0 24 9 46t25.5 39t38.5 27t48 10h703v-125h-309v-139h307v-125h-307v-181h310v-125zM445 124v447h-266v-447h266z" />
    <glyph glyph-name="oe" unicode="&#x153;" horiz-adv-x="1187" 
d="M652 252v-127h466v-125h-947q-125 0 -125 125v377q0 27 10 50t27.5 40t40 26.5t47.5 9.5h854q27 0 50 -9.5t39.5 -26t25.5 -39.5t9 -50v-126q0 -57 -34 -91t-90 -34h-373zM527 125v377h-356v-377h356zM1025 377v126h-373v-126h373z" />
    <glyph glyph-name="Racute" unicode="&#x154;" horiz-adv-x="627" 
d="M55 0zM613 0h-157l-224 318h-51l2 -318h-125l-3 695h408q27 0 50 -9t40 -25.5t26.5 -39.5t9.5 -51v-127q0 -66 -31.5 -95.5t-94.5 -29.5h-81zM463 439v131h-282v-131h282zM371 927h133l-150 -194h-116z" />
    <glyph glyph-name="racute" unicode="&#x155;" horiz-adv-x="654" 
d="M55 0zM629 376h-126v126h-323v-502h-125v628h448q126 0 126 -126v-126zM398 853h133l-150 -194h-116z" />
    <glyph glyph-name="Rcommaaccent" unicode="&#x156;" horiz-adv-x="627" 
d="M55 0zM613 0h-157l-224 318h-51l2 -318h-125l-3 695h408q27 0 50 -9t40 -25.5t26.5 -39.5t9.5 -51v-127q0 -66 -31.5 -95.5t-94.5 -29.5h-81zM463 439v131h-282v-131h282zM405 -117q0 -57 -35.5 -99t-106.5 -57l-16 27q43 20 53 57q-33 0 -51 23.5t-18 51.5q0 38 23.5 63
t64.5 25q33 0 59.5 -23t26.5 -68z" />
    <glyph glyph-name="rcommaaccent" unicode="&#x157;" horiz-adv-x="654" 
d="M38 0zM629 376h-126v126h-323v-502h-125v628h448q126 0 126 -126v-126zM212 -117q0 -57 -35.5 -99t-106.5 -57l-16 27q43 20 53 57q-33 0 -51 23.5t-18 51.5q0 38 23.5 63t64.5 25q33 0 59.5 -23t26.5 -68z" />
    <glyph glyph-name="Rcaron" unicode="&#x158;" horiz-adv-x="627" 
d="M55 0zM613 0h-157l-224 318h-51l2 -318h-125l-3 695h408q27 0 50 -9t40 -25.5t26.5 -39.5t9.5 -51v-127q0 -66 -31.5 -95.5t-94.5 -29.5h-81zM463 439v131h-282v-131h282zM113 927h126l88 -132l83 132h134l-132 -194h-166z" />
    <glyph glyph-name="rcaron" unicode="&#x159;" horiz-adv-x="654" 
d="M55 0zM629 376h-126v126h-323v-502h-125v628h448q126 0 126 -126v-126zM121 853h126l88 -132l83 132h134l-132 -194h-166z" />
    <glyph glyph-name="Sacute" unicode="&#x15a;" horiz-adv-x="586" 
d="M44 0zM541 125q0 -61 -32.5 -93t-93.5 -32h-362v125h362v183h-246q-56 0 -90.5 31.5t-34.5 93.5v137q0 60 34 92.5t91 32.5h342v-125h-342v-137h246q57 0 91.5 -34t34.5 -91v-183zM367 927h133l-150 -194h-116z" />
    <glyph glyph-name="sacute" unicode="&#x15b;" horiz-adv-x="674" 
d="M44 0zM629 125q0 -61 -33 -93t-94 -32h-449v125h449v126h-333q-56 0 -90.5 31.5t-34.5 93.5v126q0 60 34 93t91 33h429v-126h-429v-126h333q58 0 92.5 -34t34.5 -91v-126zM387 853h133l-150 -194h-116z" />
    <glyph glyph-name="Scedilla" unicode="&#x15e;" horiz-adv-x="586" 
d="M44 0zM541 125q0 -61 -32.5 -93t-93.5 -32h-362v125h362v183h-246q-56 0 -90.5 31.5t-34.5 93.5v137q0 60 34 92.5t91 32.5h342v-125h-342v-137h246q57 0 91.5 -34t34.5 -91v-183zM384 -117q0 -57 -35.5 -99t-106.5 -57l-16 27q43 20 53 57q-33 0 -51 23.5t-18 51.5
q0 38 23.5 63t64.5 25q33 0 59.5 -23t26.5 -68z" />
    <glyph glyph-name="scedilla" unicode="&#x15f;" horiz-adv-x="674" 
d="M44 0zM629 125q0 -61 -33 -93t-94 -32h-449v125h449v126h-333q-56 0 -90.5 31.5t-34.5 93.5v126q0 60 34 93t91 33h429v-126h-429v-126h333q58 0 92.5 -34t34.5 -91v-126zM424 -117q0 -57 -35.5 -99t-106.5 -57l-16 27q43 20 53 57q-33 0 -51 23.5t-18 51.5q0 38 23.5 63
t64.5 25q33 0 59.5 -23t26.5 -68z" />
    <glyph glyph-name="Scaron" unicode="&#x160;" horiz-adv-x="586" 
d="M44 0zM541 125q0 -61 -32.5 -93t-93.5 -32h-362v125h362v183h-246q-56 0 -90.5 31.5t-34.5 93.5v137q0 60 34 92.5t91 32.5h342v-125h-342v-137h246q57 0 91.5 -34t34.5 -91v-183zM94 927h126l88 -132l83 132h134l-132 -194h-166z" />
    <glyph glyph-name="scaron" unicode="&#x161;" horiz-adv-x="674" 
d="M44 0zM629 125q0 -61 -33 -93t-94 -32h-449v125h449v126h-333q-56 0 -90.5 31.5t-34.5 93.5v126q0 60 34 93t91 33h429v-126h-429v-126h333q58 0 92.5 -34t34.5 -91v-126zM121 853h126l88 -132l83 132h134l-132 -194h-166z" />
    <glyph glyph-name="Tcedilla" unicode="&#x162;" horiz-adv-x="573" 
d="M18 0zM554 570h-206v-570h-124v570h-206v125h536v-125zM374 -117q0 -57 -35.5 -99t-106.5 -57l-16 27q43 20 53 57q-33 0 -51 23.5t-18 51.5q0 38 23.5 63t64.5 25q33 0 59.5 -23t26.5 -68z" />
    <glyph glyph-name="tcedilla" unicode="&#x163;" horiz-adv-x="323" 
d="M51 0zM302 0h-126q-27 0 -50 9.5t-39.5 26t-26 39.5t-9.5 50v681h125v-178h126v-116h-126v-387h126v-125zM289 -117q0 -57 -35.5 -99t-106.5 -57l-16 27q43 20 53 57q-33 0 -51 23.5t-18 51.5q0 38 23.5 63t64.5 25q33 0 59.5 -23t26.5 -68z" />
    <glyph glyph-name="Tcaron" unicode="&#x164;" horiz-adv-x="573" 
d="M18 0zM554 570h-206v-570h-124v570h-206v125h536v-125zM72 927h126l88 -132l83 132h134l-132 -194h-166z" />
    <glyph glyph-name="tcaron" unicode="&#x165;" horiz-adv-x="467" 
d="M51 0zM302 0h-126q-27 0 -50 9.5t-39.5 26t-26 39.5t-9.5 50v681h125v-178h126v-116h-126v-387h126v-125zM486 717q0 -57 -35.5 -99t-106.5 -57l-16 27q43 20 53 57q-33 0 -51 23.5t-18 51.5q0 38 23.5 63t64.5 25q33 0 59.5 -23t26.5 -68z" />
    <glyph glyph-name="Tbar" unicode="&#x166;" horiz-adv-x="573" 
d="M554 570h-206v-124h103v-125h-103v-321h-124v321h-103v125h103v124h-206v125h536v-125z" />
    <glyph glyph-name="tbar" unicode="&#x167;" horiz-adv-x="323" 
d="M297 264h-121v-139h126v-125h-126q-27 0 -50 9.5t-39.5 26t-26 39.5t-9.5 50v681h125v-178h126v-116h-126v-134h121v-114z" />
    <glyph glyph-name="Utilde" unicode="&#x168;" horiz-adv-x="635" 
d="M51 0zM584 125q0 -56 -35 -90.5t-90 -34.5h-283q-27 0 -50 9.5t-39.5 26t-26 39.5t-9.5 50v570h125v-570h283v570h125v-570zM521 826q-11 -21 -34 -37.5t-61 -16.5q-36 0 -61 7.5t-47.5 17t-47.5 17t-63 7.5q-32 0 -52.5 -12.5t-34.5 -33.5v98q11 21 34 37.5t61 16.5
q37 0 61.5 -7.5t47 -17t48 -17t63.5 -7.5q32 0 52.5 12.5t33.5 33.5v-98z" />
    <glyph glyph-name="utilde" unicode="&#x169;" horiz-adv-x="728" 
d="M51 0zM677 125q0 -56 -34.5 -90.5t-90.5 -34.5h-377q-27 0 -50 9.5t-39.5 26t-25.5 39.5t-9 50v503h124v-503h377v503h125v-503zM564 752q-11 -21 -34 -37.5t-61 -16.5q-36 0 -61 7.5t-47.5 17t-47.5 17t-63 7.5q-32 0 -52.5 -12.5t-34.5 -33.5v98q11 21 34 37.5t61 16.5
q37 0 61.5 -7.5t47 -17t48 -17t63.5 -7.5q32 0 52.5 12.5t33.5 33.5v-98z" />
    <glyph glyph-name="Umacron" unicode="&#x16a;" horiz-adv-x="635" 
d="M51 0zM584 125q0 -56 -35 -90.5t-90 -34.5h-283q-27 0 -50 9.5t-39.5 26t-26 39.5t-9.5 50v570h125v-570h283v570h125v-570zM523 780h-400v114h400v-114z" />
    <glyph glyph-name="umacron" unicode="&#x16b;" horiz-adv-x="728" 
d="M51 0zM677 125q0 -56 -34.5 -90.5t-90.5 -34.5h-377q-27 0 -50 9.5t-39.5 26t-25.5 39.5t-9 50v503h124v-503h377v503h125v-503zM564 706h-400v114h400v-114z" />
    <glyph glyph-name="Ubreve" unicode="&#x16c;" horiz-adv-x="635" 
d="M51 0zM584 125q0 -56 -35 -90.5t-90 -34.5h-283q-27 0 -50 9.5t-39.5 26t-26 39.5t-9.5 50v570h125v-570h283v570h125v-570zM528 840q0 -48 -29 -76.5t-76 -28.5h-204q-45 0 -74.5 29.5t-29.5 75.5v87h104v-98h204v98h105v-87z" />
    <glyph glyph-name="ubreve" unicode="&#x16d;" horiz-adv-x="728" 
d="M51 0zM677 125q0 -56 -34.5 -90.5t-90.5 -34.5h-377q-27 0 -50 9.5t-39.5 26t-25.5 39.5t-9 50v503h124v-503h377v503h125v-503zM570 766q0 -48 -29 -76.5t-76 -28.5h-204q-45 0 -74.5 29.5t-29.5 75.5v87h104v-98h204v98h105v-87z" />
    <glyph glyph-name="Uring" unicode="&#x16e;" horiz-adv-x="635" 
d="M51 0zM584 125q0 -56 -35 -90.5t-90 -34.5h-283q-27 0 -50 9.5t-39.5 26t-26 39.5t-9.5 50v570h125v-570h283v570h125v-570zM430 820q0 -22 -8.5 -41.5t-23.5 -34.5t-34.5 -23.5t-41.5 -8.5t-41.5 8.5t-34.5 23.5t-23.5 34.5t-8.5 41.5t8.5 41.5t23.5 34t34.5 23
t41.5 8.5t41.5 -8.5t34.5 -23t23.5 -34t8.5 -41.5zM363 820q0 17 -12 28.5t-29 11.5t-28.5 -11.5t-11.5 -28.5t11.5 -29t28.5 -12t29 12t12 29z" />
    <glyph glyph-name="uring" unicode="&#x16f;" horiz-adv-x="728" 
d="M51 0zM677 125q0 -56 -34.5 -90.5t-90.5 -34.5h-377q-27 0 -50 9.5t-39.5 26t-25.5 39.5t-9 50v503h124v-503h377v503h125v-503zM472 746q0 -22 -8.5 -41.5t-23.5 -34.5t-34.5 -23.5t-41.5 -8.5t-41.5 8.5t-34.5 23.5t-23.5 34.5t-8.5 41.5t8.5 41.5t23.5 34t34.5 23
t41.5 8.5t41.5 -8.5t34.5 -23t23.5 -34t8.5 -41.5zM405 746q0 17 -12 28.5t-29 11.5t-28.5 -11.5t-11.5 -28.5t11.5 -29t28.5 -12t29 12t12 29z" />
    <glyph glyph-name="Uhungarumlaut" unicode="&#x170;" horiz-adv-x="635" 
d="M51 0zM584 125q0 -56 -35 -90.5t-90 -34.5h-283q-27 0 -50 9.5t-39.5 26t-26 39.5t-9.5 50v570h125v-570h283v570h125v-570zM482 927h133l-149 -194h-117zM261 927h133l-150 -194h-116z" />
    <glyph glyph-name="uhungarumlaut" unicode="&#x171;" horiz-adv-x="728" 
d="M51 0zM677 125q0 -56 -34.5 -90.5t-90.5 -34.5h-377q-27 0 -50 9.5t-39.5 26t-25.5 39.5t-9 50v503h124v-503h377v503h125v-503zM524 853h133l-149 -194h-117zM303 853h133l-150 -194h-116z" />
    <glyph glyph-name="Uogonek" unicode="&#x172;" horiz-adv-x="635" 
d="M459 -273h-197q-51 0 -71.5 20.5t-20.5 58.5v21q0 17 3 30t11 25t21.5 24.5t35.5 28.5l92 65h-157q-27 0 -50 9.5t-39.5 26t-26 39.5t-9.5 50v570h125v-570h283v570h125v-570q0 -56 -35 -90.5t-90 -34.5l-146 -112q-12 -9 -14.5 -13.5t-2.5 -15.5v-6h163v-126z" />
    <glyph glyph-name="uogonek" unicode="&#x173;" horiz-adv-x="728" 
d="M552 -273h-197q-51 0 -71.5 20.5t-20.5 58.5v21q0 17 3 30t11 25t21.5 24.5t35.5 28.5l92 65h-251q-27 0 -50 9.5t-39.5 26t-25.5 39.5t-9 50v503h124v-503h377v503h125v-503q0 -56 -34.5 -90.5t-90.5 -34.5l-146 -112q-12 -9 -14.5 -13.5t-2.5 -15.5v-6h163v-126z" />
    <glyph glyph-name="Wcircumflex" unicode="&#x174;" horiz-adv-x="887" 
d="M11 0zM876 695l-193 -695h-130l-109 438l-113 -438h-135l-185 695h133l122 -491l127 491h105l119 -491l130 491h129zM663 733h-126l-88 133l-83 -133h-134l132 194h166z" />
    <glyph glyph-name="wcircumflex" unicode="&#x175;" horiz-adv-x="1026" 
d="M11 0zM1015 628l-240 -628h-130l-132 400l-136 -400h-136l-230 628h143l158 -456l153 456h101l143 -456l167 456h139zM728 659h-126l-88 133l-83 -133h-134l132 194h166z" />
    <glyph glyph-name="Ycircumflex" unicode="&#x176;" horiz-adv-x="586" 
d="M6 0zM579 695l-226 -452v-243h-126v243l-221 452h140l146 -314l150 314h137zM509 733h-126l-88 133l-83 -133h-134l132 194h166z" />
    <glyph glyph-name="ycircumflex" unicode="&#x177;" horiz-adv-x="650" 
d="M11 0zM157 628l164 -449l181 449h137l-336 -836h-140l89 218l-241 618h146zM536 659h-126l-88 133l-83 -133h-134l132 194h166z" />
    <glyph glyph-name="Ydieresis" unicode="&#x178;" horiz-adv-x="586" 
d="M6 0zM579 695l-226 -452v-243h-126v243l-221 452h140l146 -314l150 314h137zM491 830q0 -33 -23.5 -56t-55.5 -23t-55 23t-23 56t23 55.5t55 22.5t55.5 -22.5t23.5 -55.5zM248 830q0 -33 -23 -56t-55 -23q-34 0 -57 23t-23 56t23 55.5t57 22.5q32 0 55 -22.5t23 -55.5z
" />
    <glyph glyph-name="Zacute" unicode="&#x179;" horiz-adv-x="597" 
d="M33 0zM564 0h-531v69l343 501h-343v125h531v-61l-342 -509h342v-125zM361 927h133l-150 -194h-116z" />
    <glyph glyph-name="zacute" unicode="&#x17a;" horiz-adv-x="693" 
d="M33 0zM660 0h-627v69l407 433h-407v126h627v-61l-406 -442h406v-125zM396 853h133l-150 -194h-116z" />
    <glyph glyph-name="Zdotaccent" unicode="&#x17b;" horiz-adv-x="597" 
d="M33 0zM564 0h-531v69l343 501h-343v125h531v-61l-342 -509h342v-125zM387 830q0 -33 -23 -56t-55 -23q-34 0 -57 23t-23 56t23 55.5t57 22.5q32 0 55 -22.5t23 -55.5z" />
    <glyph glyph-name="zdotaccent" unicode="&#x17c;" horiz-adv-x="693" 
d="M33 0zM660 0h-627v69l407 433h-407v126h627v-61l-406 -442h406v-125zM425 756q0 -33 -23 -56t-55 -23q-34 0 -57 23t-23 56t23 55.5t57 22.5q32 0 55 -22.5t23 -55.5z" />
    <glyph glyph-name="Zcaron" unicode="&#x17d;" horiz-adv-x="597" 
d="M33 0zM564 0h-531v69l343 501h-343v125h531v-61l-342 -509h342v-125zM98 927h126l88 -132l83 132h134l-132 -194h-166z" />
    <glyph glyph-name="zcaron" unicode="&#x17e;" horiz-adv-x="693" 
d="M33 0zM660 0h-627v69l407 433h-407v126h627v-61l-406 -442h406v-125zM131 853h126l88 -132l83 132h134l-132 -194h-166z" />
    <glyph glyph-name="Scommaaccent" unicode="&#x218;" horiz-adv-x="586" 
d="M44 0zM541 125q0 -61 -32.5 -93t-93.5 -32h-362v125h362v183h-246q-56 0 -90.5 31.5t-34.5 93.5v137q0 60 34 92.5t91 32.5h342v-125h-342v-137h246q57 0 91.5 -34t34.5 -91v-183zM387 -117q0 -57 -35.5 -99t-106.5 -57l-16 27q43 20 53 57q-33 0 -51 23.5t-18 51.5
q0 38 23.5 63t64.5 25q33 0 59.5 -23t26.5 -68z" />
    <glyph glyph-name="scommaaccent" unicode="&#x219;" horiz-adv-x="674" 
d="M44 0zM629 125q0 -61 -33 -93t-94 -32h-449v125h449v126h-333q-56 0 -90.5 31.5t-34.5 93.5v126q0 60 34 93t91 33h429v-126h-429v-126h333q58 0 92.5 -34t34.5 -91v-126zM424 -117q0 -57 -35.5 -99t-106.5 -57l-16 27q43 20 53 57q-33 0 -51 23.5t-18 51.5q0 38 23.5 63
t64.5 25q33 0 59.5 -23t26.5 -68z" />
    <glyph glyph-name="uni021A" unicode="&#x21a;" horiz-adv-x="573" 
d="M18 0zM554 570h-206v-570h-124v570h-206v125h536v-125zM377 -117q0 -57 -35.5 -99t-106.5 -57l-16 27q43 20 53 57q-33 0 -51 23.5t-18 51.5q0 38 23.5 63t64.5 25q33 0 59.5 -23t26.5 -68z" />
    <glyph glyph-name="uni021B" unicode="&#x21b;" horiz-adv-x="323" 
d="M51 0zM302 0h-126q-27 0 -50 9.5t-39.5 26t-26 39.5t-9.5 50v681h125v-178h126v-116h-126v-387h126v-125zM289 -117q0 -57 -35.5 -99t-106.5 -57l-16 27q43 20 53 57q-33 0 -51 23.5t-18 51.5q0 38 23.5 63t64.5 25q33 0 59.5 -23t26.5 -68z" />
    <glyph glyph-name="circumflex" unicode="&#x2c6;" horiz-adv-x="541" 
d="M486 659h-126l-88 133l-83 -133h-134l132 194h166z" />
    <glyph glyph-name="caron" unicode="&#x2c7;" horiz-adv-x="541" 
d="M55 853h126l88 -132l83 132h134l-132 -194h-166z" />
    <glyph glyph-name="breve" unicode="&#x2d8;" horiz-adv-x="524" 
d="M468 766q0 -48 -29 -76.5t-76 -28.5h-204q-45 0 -74.5 29.5t-29.5 75.5v87h104v-98h204v98h105v-87z" />
    <glyph glyph-name="dotaccent" unicode="&#x2d9;" horiz-adv-x="268" 
d="M213 756q0 -33 -23 -56t-55 -23q-34 0 -57 23t-23 56t23 55.5t57 22.5q32 0 55 -22.5t23 -55.5z" />
    <glyph glyph-name="ring" unicode="&#x2da;" horiz-adv-x="326" 
d="M271 746q0 -22 -8.5 -41.5t-23.5 -34.5t-34.5 -23.5t-41.5 -8.5t-41.5 8.5t-34.5 23.5t-23.5 34.5t-8.5 41.5t8.5 41.5t23.5 34t34.5 23t41.5 8.5t41.5 -8.5t34.5 -23t23.5 -34t8.5 -41.5zM204 746q0 17 -12 28.5t-29 11.5t-28.5 -11.5t-11.5 -28.5t11.5 -29t28.5 -12
t29 12t12 29z" />
    <glyph glyph-name="ogonek" unicode="&#x2db;" horiz-adv-x="399" 
d="M344 -273h-197q-51 0 -71.5 20.5t-20.5 58.5v21q0 17 3 30t11 25t21.5 24.5t35.5 28.5l92 65h126l-146 -112q-12 -9 -14.5 -13.5t-2.5 -15.5v-6h163v-126z" />
    <glyph glyph-name="tilde" unicode="&#x2dc;" horiz-adv-x="512" 
d="M456 752q-11 -21 -34 -37.5t-61 -16.5q-36 0 -61 7.5t-47.5 17t-47.5 17t-63 7.5q-32 0 -52.5 -12.5t-34.5 -33.5v98q11 21 34 37.5t61 16.5q37 0 61.5 -7.5t47 -17t48 -17t63.5 -7.5q32 0 52.5 12.5t33.5 33.5v-98z" />
    <glyph glyph-name="hungarumlaut" unicode="&#x2dd;" horiz-adv-x="597" 
d="M413 853h133l-149 -194h-117zM192 853h133l-150 -194h-116z" />
    <glyph glyph-name="Wgrave" unicode="&#x1e80;" horiz-adv-x="887" 
d="M11 0zM876 695l-193 -695h-130l-109 438l-113 -438h-135l-185 695h133l122 -491l127 491h105l119 -491l130 491h129zM529 733h-116l-150 194h133z" />
    <glyph glyph-name="wgrave" unicode="&#x1e81;" horiz-adv-x="1026" 
d="M11 0zM1015 628l-240 -628h-130l-132 400l-136 -400h-136l-230 628h143l158 -456l153 456h101l143 -456l167 456h139zM596 659h-116l-150 194h133z" />
    <glyph glyph-name="Wacute" unicode="&#x1e82;" horiz-adv-x="887" 
d="M11 0zM876 695l-193 -695h-130l-109 438l-113 -438h-135l-185 695h133l122 -491l127 491h105l119 -491l130 491h129zM496 927h133l-150 -194h-116z" />
    <glyph glyph-name="wacute" unicode="&#x1e83;" horiz-adv-x="1026" 
d="M11 0zM1015 628l-240 -628h-130l-132 400l-136 -400h-136l-230 628h143l158 -456l153 456h101l143 -456l167 456h139zM563 853h133l-150 -194h-116z" />
    <glyph glyph-name="Wdieresis" unicode="&#x1e84;" horiz-adv-x="887" 
d="M11 0zM876 695l-193 -695h-130l-109 438l-113 -438h-135l-185 695h133l122 -491l127 491h105l119 -491l130 491h129zM648 830q0 -33 -23.5 -56t-55.5 -23t-55 23t-23 56t23 55.5t55 22.5t55.5 -22.5t23.5 -55.5zM405 830q0 -33 -23 -56t-55 -23q-34 0 -57 23t-23 56
t23 55.5t57 22.5q32 0 55 -22.5t23 -55.5z" />
    <glyph glyph-name="wdieresis" unicode="&#x1e85;" horiz-adv-x="1026" 
d="M11 0zM1015 628l-240 -628h-130l-132 400l-136 -400h-136l-230 628h143l158 -456l153 456h101l143 -456l167 456h139zM713 756q0 -33 -23.5 -56t-55.5 -23t-55 23t-23 56t23 55.5t55 22.5t55.5 -22.5t23.5 -55.5zM470 756q0 -33 -23 -56t-55 -23q-34 0 -57 23t-23 56
t23 55.5t57 22.5q32 0 55 -22.5t23 -55.5z" />
    <glyph glyph-name="Ygrave" unicode="&#x1ef2;" horiz-adv-x="586" 
d="M6 0zM579 695l-226 -452v-243h-126v243l-221 452h140l146 -314l150 314h137zM375 733h-116l-150 194h133z" />
    <glyph glyph-name="ygrave" unicode="&#x1ef3;" horiz-adv-x="650" 
d="M11 0zM157 628l164 -449l181 449h137l-336 -836h-140l89 218l-241 618h146zM403 659h-116l-150 194h133z" />
    <glyph glyph-name="endash" unicode="&#x2013;" horiz-adv-x="685" 
d="M668 251h-652v125h652v-125z" />
    <glyph glyph-name="emdash" unicode="&#x2014;" horiz-adv-x="823" 
d="M806 251h-790v125h790v-125z" />
    <glyph glyph-name="quoteleft" unicode="&#x2018;" horiz-adv-x="262" 
d="M44 717q0 45 26.5 68t59.5 23q40 0 64 -25t24 -63q0 -28 -18 -51.5t-51 -23.5q10 -37 53 -57l-16 -27q-71 16 -106.5 57.5t-35.5 98.5z" />
    <glyph glyph-name="quoteright" unicode="&#x2019;" horiz-adv-x="262" 
d="M218 717q0 -57 -35.5 -98.5t-106.5 -57.5l-16 27q44 20 52 57q-32 0 -50 23.5t-18 51.5q0 38 23.5 63t64.5 25q33 0 59.5 -23t26.5 -68z" />
    <glyph glyph-name="quotesinglbase" unicode="&#x201a;" horiz-adv-x="262" 
d="M218 70q0 -57 -35.5 -98.5t-106.5 -57.5l-16 27q44 20 52 57q-32 0 -50 23.5t-18 51.5q0 38 23.5 63t64.5 25q33 0 59.5 -23t26.5 -68z" />
    <glyph glyph-name="quotedblleft" unicode="&#x201c;" horiz-adv-x="524" 
d="M44 561zM44 717q0 45 26.5 68t59.5 23q40 0 64 -25t24 -63q0 -28 -18 -51.5t-51 -23.5q10 -37 53 -57l-16 -27q-71 16 -106.5 57.5t-35.5 98.5zM306 717q0 45 26.5 68t59.5 23q40 0 64 -25t24 -63q0 -28 -18 -51.5t-51 -23.5q10 -37 53 -57l-16 -27q-71 16 -106.5 57.5
t-35.5 98.5z" />
    <glyph glyph-name="quotedblright" unicode="&#x201d;" horiz-adv-x="524" 
d="M44 561zM218 717q0 -57 -35.5 -98.5t-106.5 -57.5l-16 27q44 20 52 57q-32 0 -50 23.5t-18 51.5q0 38 23.5 63t64.5 25q33 0 59.5 -23t26.5 -68zM480 717q0 -57 -35.5 -98.5t-106.5 -57.5l-16 27q44 20 52 57q-32 0 -50 23.5t-18 51.5q0 38 23.5 63t64.5 25
q33 0 59.5 -23t26.5 -68z" />
    <glyph glyph-name="quotedblbase" unicode="&#x201e;" horiz-adv-x="524" 
d="M44 0zM218 70q0 -57 -35.5 -98.5t-106.5 -57.5l-16 27q44 20 52 57q-32 0 -50 23.5t-18 51.5q0 38 23.5 63t64.5 25q33 0 59.5 -23t26.5 -68zM480 70q0 -57 -35.5 -98.5t-106.5 -57.5l-16 27q44 20 52 57q-32 0 -50 23.5t-18 51.5q0 38 23.5 63t64.5 25q33 0 59.5 -23
t26.5 -68z" />
    <glyph glyph-name="dagger" unicode="&#x2020;" horiz-adv-x="410" 
d="M152 0v458h-132v105h132v132h105v-132h132v-105h-132v-458h-105z" />
    <glyph glyph-name="daggerdbl" unicode="&#x2021;" horiz-adv-x="410" 
d="M152 0v132h-132v105h132v221h-132v105h132v132h105v-132h132v-105h-132v-221h132v-105h-132v-132h-105z" />
    <glyph glyph-name="bullet" unicode="&#x2022;" horiz-adv-x="441" 
d="M388 371q0 -34 -13.5 -64.5t-36 -53t-53 -36t-64.5 -13.5q-35 0 -65.5 13t-53.5 36t-36 53t-13 65t13 65.5t36 53.5t53.5 36t65.5 13q34 0 64.5 -13.5t53 -36t36 -53.5t13.5 -65z" />
    <glyph glyph-name="ellipsis" unicode="&#x2026;" horiz-adv-x="938" 
d="M58 0zM232 76q0 -18 -7 -34t-19 -27.5t-27.5 -18.5t-33.5 -7q-36 0 -61.5 25.5t-25.5 61.5t25.5 60.5t61.5 24.5q18 0 33.5 -6.5t27.5 -18t19 -27t7 -33.5zM556 76q0 -18 -7 -34t-19 -27.5t-27.5 -18.5t-33.5 -7q-36 0 -61.5 25.5t-25.5 61.5t25.5 60.5t61.5 24.5
q18 0 33.5 -6.5t27.5 -18t19 -27t7 -33.5zM880 76q0 -18 -7 -34t-19 -27.5t-27.5 -18.5t-33.5 -7q-36 0 -61.5 25.5t-25.5 61.5t25.5 60.5t61.5 24.5q18 0 33.5 -6.5t27.5 -18t19 -27t7 -33.5z" />
    <glyph glyph-name="perthousand" unicode="&#x2030;" horiz-adv-x="1337" 
d="M46 0zM394 419q0 -73 -73 -73h-202q-73 0 -73 73v202q0 31 22 52.5t51 21.5h202q30 0 51.5 -22t21.5 -52v-202zM315 425v191h-190v-191h190zM784 696l-505 -696h-114l507 696h112zM903 73q0 -73 -73 -73h-202q-73 0 -73 73v202q0 31 22 52.5t51 21.5h202q30 0 51.5 -22
t21.5 -52v-202zM824 79v191h-190v-191h190zM1291 73q0 -73 -73 -73h-202q-73 0 -73 73v202q0 31 22 52.5t51 21.5h202q30 0 51.5 -22t21.5 -52v-202zM1212 79v191h-190v-191h190z" />
    <glyph glyph-name="guilsinglleft" unicode="&#x2039;" horiz-adv-x="319" 
d="M300 171l-71 -70l-211 211l211 211l71 -70l-141 -141z" />
    <glyph glyph-name="guilsinglright" unicode="&#x203a;" horiz-adv-x="319" 
d="M159 312l-141 141l70 70l212 -211l-212 -211l-70 70z" />
    <glyph glyph-name="fraction" unicode="&#x2044;" horiz-adv-x="171" 
d="M395 696l-505 -696h-114l507 696h112z" />
    <glyph glyph-name="zerosuperior" unicode="&#x2070;" horiz-adv-x="425" 
d="M36 279zM384 352q0 -73 -73 -73h-202q-73 0 -73 73v202q0 31 22 52.5t51 21.5h202q30 0 51.5 -22t21.5 -52v-202zM305 358v191h-190v-191h190z" />
    <glyph glyph-name="foursuperior" unicode="&#x2074;" horiz-adv-x="443" 
d="M24 279zM416 414h-43v-135h-79v135h-270v214h79v-135h191v135h79v-135h43v-79z" />
    <glyph glyph-name="fivesuperior" unicode="&#x2075;" horiz-adv-x="428" 
d="M39 279zM387 352q0 -35 -19 -54t-54 -19h-274v79h268v56h-269v214h346v-79h-267v-56h196q34 0 53.5 -20t19.5 -53v-68z" />
    <glyph glyph-name="sixsuperior" unicode="&#x2076;" horiz-adv-x="424" 
d="M36 279zM385 352q0 -35 -19.5 -54t-54.5 -19h-202q-31 0 -52 20.5t-21 52.5v202q0 31 21 52.5t52 21.5h273v-79h-267v-53h196q35 0 54.5 -20.5t19.5 -53.5v-70zM305 358v58h-190v-58h190z" />
    <glyph glyph-name="sevensuperior" unicode="&#x2077;" horiz-adv-x="396" 
d="M19 279zM370 557l-248 -278h-103l241 270h-239v79h349v-71z" />
    <glyph glyph-name="eightsuperior" unicode="&#x2078;" horiz-adv-x="424" 
d="M35 279zM384 352q0 -73 -73 -73h-202q-74 0 -74 73v50q0 14 8 26.5t20 22.5q-13 10 -20.5 23t-7.5 30v50q0 31 22 52.5t52 21.5h202q30 0 51.5 -22t21.5 -52v-50q0 -34 -27 -53q16 -10 21.5 -21.5t5.5 -27.5v-50zM305 490v59h-190v-59h190zM305 358v58h-190v-58h190z" />
    <glyph glyph-name="ninesuperior" unicode="&#x2079;" horiz-adv-x="422" 
d="M33 279zM381 352q0 -31 -19 -52t-54 -21h-275v79h269v51h-197q-35 0 -53.5 19t-18.5 54v72q0 35 18 54.5t54 19.5h203q37 0 55 -20.5t18 -53.5v-202zM302 488v61h-191v-61h191z" />
    <glyph glyph-name="zeroinferior" unicode="&#x2080;" horiz-adv-x="425" 
d="M384 73q0 -73 -73 -73h-202q-73 0 -73 73v202q0 31 22 52.5t51 21.5h202q30 0 51.5 -22t21.5 -52v-202zM305 79v191h-190v-191h190z" />
    <glyph glyph-name="oneinferior" unicode="&#x2081;" horiz-adv-x="264" 
d="M239 0h-214v79h69v191h-69v79h147v-270h67v-79z" />
    <glyph glyph-name="twoinferior" unicode="&#x2082;" horiz-adv-x="423" 
d="M384 0h-349v141q0 32 20 52.5t53 20.5h196v56h-265v79h271q34 0 54 -19.5t20 -54.5v-64q0 -34 -21 -55t-53 -21h-196v-56h270v-79z" />
    <glyph glyph-name="threeinferior" unicode="&#x2083;" horiz-adv-x="403" 
d="M364 73q0 -73 -73 -73h-271v79h265v56h-262v79h262v56h-264v79h270q36 0 53.5 -19.5t17.5 -54.5v-50q0 -24 -4.5 -35t-18.5 -18q12 -8 18.5 -19t6.5 -30v-50z" />
    <glyph glyph-name="fourinferior" unicode="&#x2084;" horiz-adv-x="443" 
d="M416 135h-43v-135h-79v135h-270v214h79v-135h191v135h79v-135h43v-79z" />
    <glyph glyph-name="fiveinferior" unicode="&#x2085;" horiz-adv-x="428" 
d="M387 73q0 -35 -19 -54t-54 -19h-274v79h268v56h-269v214h346v-79h-267v-56h196q34 0 53.5 -20t19.5 -53v-68z" />
    <glyph glyph-name="sixinferior" unicode="&#x2086;" horiz-adv-x="424" 
d="M385 73q0 -35 -19.5 -54t-54.5 -19h-202q-31 0 -52 20.5t-21 52.5v202q0 31 21 52.5t52 21.5h273v-79h-267v-53h196q35 0 54.5 -20.5t19.5 -53.5v-70zM305 79v58h-190v-58h190z" />
    <glyph glyph-name="seveninferior" unicode="&#x2087;" horiz-adv-x="396" 
d="M370 278l-248 -278h-103l241 270h-239v79h349v-71z" />
    <glyph glyph-name="eightinferior" unicode="&#x2088;" horiz-adv-x="424" 
d="M384 73q0 -73 -73 -73h-202q-74 0 -74 73v50q0 14 8 26.5t20 22.5q-13 10 -20.5 23t-7.5 30v50q0 31 22 52.5t52 21.5h202q30 0 51.5 -22t21.5 -52v-50q0 -34 -27 -53q16 -10 21.5 -21.5t5.5 -27.5v-50zM305 211v59h-190v-59h190zM305 79v58h-190v-58h190z" />
    <glyph glyph-name="nineinferior" unicode="&#x2089;" horiz-adv-x="422" 
d="M381 73q0 -31 -19 -52t-54 -21h-275v79h269v51h-197q-35 0 -53.5 19t-18.5 54v72q0 35 18 54.5t54 19.5h203q37 0 55 -20.5t18 -53.5v-202zM302 209v61h-191v-61h191z" />
    <glyph glyph-name="Euro" unicode="&#x20ac;" horiz-adv-x="713" 
d="M684 0h-481q-125 0 -125 125v70h-61l18 82h43v82h-61l18 83h43v60q0 26 10 49t27 40t39.5 27t48.5 10h473l-54 -126h-419v-60h393l-37 -83h-356v-82h321l-36 -82h-285v-70h481v-125z" />
    <glyph glyph-name="trademark" unicode="&#x2122;" horiz-adv-x="815" 
d="M214 565v-251h-63v251h-126v63h313v-63h-124zM696 314v179l-85 -179h-78l-87 179v-179h-62v314h62l125 -252l125 252h63v-314h-63z" />
    <glyph glyph-name="onethird" unicode="&#x2153;" horiz-adv-x="866" 
d="M46 0zM260 346h-214v79h69v191h-69v79h147v-270h67v-79zM680 696l-505 -696h-114l507 696h112zM820 73q0 -73 -73 -73h-271v79h265v56h-262v79h262v56h-264v79h270q36 0 53.5 -19.5t17.5 -54.5v-50q0 -24 -4.5 -35t-18.5 -18q12 -8 18.5 -19t6.5 -30v-50z" />
    <glyph glyph-name="twothirds" unicode="&#x2154;" horiz-adv-x="1015" 
d="M46 0zM395 346h-349v141q0 32 20 52.5t53 20.5h196v56h-265v79h271q34 0 54 -19.5t20 -54.5v-64q0 -34 -21 -55t-53 -21h-196v-56h270v-79zM829 696l-505 -696h-114l507 696h112zM969 73q0 -73 -73 -73h-271v79h265v56h-262v79h262v56h-264v79h270q36 0 53.5 -19.5
t17.5 -54.5v-50q0 -24 -4.5 -35t-18.5 -18q12 -8 18.5 -19t6.5 -30v-50z" />
    <glyph glyph-name="oneeighth" unicode="&#x215b;" horiz-adv-x="867" 
d="M46 0zM260 346h-214v79h69v191h-69v79h147v-270h67v-79zM680 696l-505 -696h-114l507 696h112zM821 73q0 -73 -73 -73h-202q-74 0 -74 73v50q0 14 8 26.5t20 22.5q-13 10 -20.5 23t-7.5 30v50q0 31 22 52.5t52 21.5h202q30 0 51.5 -22t21.5 -52v-50q0 -34 -27 -53
q16 -10 21.5 -21.5t5.5 -27.5v-50zM742 211v59h-190v-59h190zM742 79v58h-190v-58h190z" />
    <glyph glyph-name="threeeighths" unicode="&#x215c;" horiz-adv-x="980" 
d="M46 0zM390 419q0 -73 -73 -73h-271v79h265v56h-262v79h262v56h-264v79h270q36 0 53.5 -19.5t17.5 -54.5v-50q0 -24 -4.5 -35t-18.5 -18q12 -8 18.5 -19t6.5 -30v-50zM803 696l-505 -696h-114l507 696h112zM934 73q0 -73 -73 -73h-202q-74 0 -74 73v50q0 14 8 26.5
t20 22.5q-13 10 -20.5 23t-7.5 30v50q0 31 22 52.5t52 21.5h202q30 0 51.5 -22t21.5 -52v-50q0 -34 -27 -53q16 -10 21.5 -21.5t5.5 -27.5v-50zM855 211v59h-190v-59h190zM855 79v58h-190v-58h190z" />
    <glyph glyph-name="fiveeighths" unicode="&#x215d;" horiz-adv-x="992" 
d="M46 0zM394 419q0 -35 -19 -54t-54 -19h-274v79h268v56h-269v214h346v-79h-267v-56h196q34 0 53.5 -20t19.5 -53v-68zM809 696l-505 -696h-114l507 696h112zM946 73q0 -73 -73 -73h-202q-74 0 -74 73v50q0 14 8 26.5t20 22.5q-13 10 -20.5 23t-7.5 30v50q0 31 22 52.5
t52 21.5h202q30 0 51.5 -22t21.5 -52v-50q0 -34 -27 -53q16 -10 21.5 -21.5t5.5 -27.5v-50zM867 211v59h-190v-59h190zM867 79v58h-190v-58h190z" />
    <glyph glyph-name="seveneighths" unicode="&#x215e;" horiz-adv-x="898" 
d="M46 0zM397 624l-248 -278h-103l241 270h-239v79h349v-71zM719 696l-505 -696h-114l507 696h112zM852 73q0 -73 -73 -73h-202q-74 0 -74 73v50q0 14 8 26.5t20 22.5q-13 10 -20.5 23t-7.5 30v50q0 31 22 52.5t52 21.5h202q30 0 51.5 -22t21.5 -52v-50q0 -34 -27 -53
q16 -10 21.5 -21.5t5.5 -27.5v-50zM773 211v59h-190v-59h190zM773 79v58h-190v-58h190z" />
    <glyph glyph-name="minus" unicode="&#x2212;" horiz-adv-x="487" 
d="M55 251v125h376v-125h-376z" />
    <glyph glyph-name="approxequal" unicode="&#x2248;" horiz-adv-x="487" 
d="M55 81zM431 136q-10 -21 -31.5 -38t-57.5 -17q-34 0 -57 8t-44.5 17t-45 17t-59.5 8q-30 0 -49 -12.5t-32 -33.5v125q10 21 32 38t58 17q34 0 57 -8t44 -17t44.5 -17t59.5 -8q31 0 50 12.5t31 33.5v-125zM431 415q-10 -21 -31.5 -38t-57.5 -17q-34 0 -57 8t-44.5 17
t-45 17t-59.5 8q-30 0 -49 -12.5t-32 -33.5v125q10 21 32 38t58 17q34 0 57 -8t44 -17t44.5 -17t59.5 -8q31 0 50 12.5t31 33.5v-125z" />
    <glyph glyph-name="notequal" unicode="&#x2260;" horiz-adv-x="487" 
d="M453 628l-67 -132h45v-125h-107l-58 -115h165v-125h-228l-65 -131h-104l66 131h-45v125h108l58 115h-166v125h229l67 132h102z" />
    <glyph glyph-name="lessequal" unicode="&#x2264;" horiz-adv-x="487" 
d="M55 0zM55 241v144l376 139v-135l-249 -76l249 -75v-135zM55 -58v125h376v-125h-376z" />
    <glyph glyph-name="greaterequal" unicode="&#x2265;" horiz-adv-x="487" 
d="M55 0zM55 103v135l250 75l-250 76v135l376 -139v-144zM55 -58v125h376v-125h-376z" />
    <glyph glyph-name="j.2" unicode="&#xe04b;" horiz-adv-x="251" 
d="M0 0zM217 756q0 -33 -23 -56t-55 -23q-34 0 -57 23t-23 56t23 55.5t57 22.5q32 0 55 -22.5t23 -55.5zM195 -82q0 -57 -34.5 -91.5t-90.5 -34.5h-125v126h125v710h125v-710z" />
    <glyph glyph-name=".null" horiz-adv-x="0" 
 />
    <glyph glyph-name="nonmarkingreturn" horiz-adv-x="310" 
 />
    <glyph glyph-name=".ttfautohint" horiz-adv-x="310" 
d="M0 0z" />
    </font>
</defs>
</svg>
