<?xml version="1.0" standalone="no"?>
<!DOCTYPE svg PUBLIC "-//W3C//DTD SVG 1.1//EN" "http://www.w3.org/Graphics/SVG/1.1/DTD/svg11.dtd" >
<svg xmlns="http://www.w3.org/2000/svg">
<metadata></metadata>
<defs>
<font id="muliregular" horiz-adv-x="1399" >
<font-face units-per-em="2048" ascent="1638" descent="-410" />
<missing-glyph horiz-adv-x="596" />
<glyph horiz-adv-x="0" />
<glyph unicode="&#xd;" horiz-adv-x="480" />
<glyph unicode=" "  horiz-adv-x="596" />
<glyph unicode="&#x09;" horiz-adv-x="596" />
<glyph unicode="&#xa0;" horiz-adv-x="596" />
<glyph unicode="!" horiz-adv-x="582" d="M194 1456h218l-55 -1079h-108zM211 0v220h186v-220h-186z" />
<glyph unicode="&#x22;" horiz-adv-x="932" d="M205 1456h189l-34 -501h-113zM540 1456h190l-33 -501h-114z" />
<glyph unicode="#" horiz-adv-x="1300" d="M78 483l10 125h263l53 282h-262l11 125h275l80 416h150l-80 -416h253l79 416h148l-81 -416h237l-10 -125h-250l-54 -282h252l-11 -125h-265l-86 -441h-147l84 441h-252l-87 -441h-147l86 441h-249zM497 608h255l54 282h-252z" />
<glyph unicode="$" horiz-adv-x="1197" d="M129 142q24 -23 64 -48.5t98 -51.5t137 -44t162 -20v-181h85v184q92 7 168.5 36t134.5 78t90.5 123t32.5 166q0 89 -19.5 152.5t-69 117.5t-130.5 94.5t-207 78.5v493q95 -6 172 -40t124 -79l95 129q-27 26 -55.5 47t-75 44.5t-113 39t-147.5 20.5v147h-85v-146 q-133 -5 -234.5 -48.5t-161.5 -130t-60 -205.5q0 -173 95.5 -265t304.5 -152q10 -3 56 -16v-526q-77 2 -157.5 28t-131 54.5t-87.5 58.5zM337 1104q0 96 68 150.5t185 64.5v-468q-79 22 -127 44.5t-76.5 53t-39 66t-10.5 89.5zM675 144v494q31 -11 57 -22t47 -22t37.5 -22.5 t29.5 -23.5t22.5 -26t16 -28t10.5 -31t5.5 -34.5t1.5 -38.5q0 -70 -25 -121t-76 -82.5t-126 -42.5z" />
<glyph unicode="%" horiz-adv-x="1869" d="M109 1081q0 180 92 287t256 107t254 -106t90 -287q0 -180 -91.5 -285t-254.5 -105q-165 0 -255.5 104t-90.5 285zM269 1082q0 -268 187 -268q185 0 185 269q0 270 -184 270q-188 0 -188 -271zM440 0l845 1456h156l-847 -1456h-154zM1068 371q0 175 93 284.5t256 109.5 q162 0 252.5 -108.5t90.5 -284.5q0 -175 -92 -283t-254 -108q-163 0 -254.5 107.5t-91.5 282.5zM1228 371q0 -267 188 -267q185 0 185 268q0 271 -184 271q-189 0 -189 -272z" />
<glyph unicode="&#x26;" horiz-adv-x="1536" d="M130 411q0 79 25.5 145t77 119t101 89.5t125.5 81.5q-82 91 -123 166t-41 167q0 141 95 219t240 78q67 0 127.5 -18t110.5 -52.5t79.5 -91.5t29.5 -129q0 -108 -77 -202t-198 -168l359 -392q60 98 94.5 226t34.5 254l170 -28q-5 -155 -52.5 -310t-127.5 -272 q151 -153 313 -193l-122 -109q-137 22 -296 183q-187 -198 -446 -198q-142 0 -254.5 51t-178.5 150.5t-66 233.5zM320 413q0 -121 85.5 -198t221.5 -77q109 0 188.5 39.5t152.5 115.5l-407 436q-56 -31 -94 -58.5t-74.5 -65.5t-54.5 -86t-18 -106zM473 1175q0 -135 122 -255 q205 127 205 255q0 75 -49 113t-114 38q-72 0 -118 -39.5t-46 -111.5z" />
<glyph unicode="'" horiz-adv-x="509" d="M162 1456h197l-28 -520h-132z" />
<glyph unicode="(" horiz-adv-x="635" d="M138 663q0 426 270 853h178q-264 -420 -264 -851q0 -202 71.5 -423.5t193.5 -414.5h-175q-125 192 -199.5 406.5t-74.5 429.5z" />
<glyph unicode=")" horiz-adv-x="635" d="M49 -193q265 419 265 852q0 201 -71.5 422t-193.5 415h175q125 -191 199.5 -406t74.5 -430q0 -428 -270 -853h-179z" />
<glyph unicode="*" horiz-adv-x="1112" d="M183 1133l55 142l253 -120l-30 302h170l-15 -302l235 120l68 -142l-263 -89l202 -246l-140 -87l-162 263l-159 -258l-138 90l194 238z" />
<glyph unicode="+" horiz-adv-x="1202" d="M131 518v156h384v401h171v-401h386v-156h-386v-415h-172v415h-383z" />
<glyph unicode="," horiz-adv-x="487" d="M72 -265l108 487h209l-167 -487h-150z" />
<glyph unicode="-" horiz-adv-x="679" d="M61 487v142h556v-142h-556z" />
<glyph unicode="." horiz-adv-x="543" d="M151 0v225h235v-225h-235z" />
<glyph unicode="/" horiz-adv-x="910" d="M125 0l530 1456h171l-534 -1456h-167z" />
<glyph unicode="0" horiz-adv-x="1231" d="M124 732q0 359 127 554.5t370 195.5q240 0 363 -197t123 -553q0 -351 -124 -552.5t-363 -201.5q-160 0 -272.5 94t-168 262.5t-55.5 397.5zM320 732q0 -182 29.5 -311t98.5 -205.5t175 -76.5q286 0 286 593q0 131 -15.5 235t-48.5 185t-89.5 125t-133.5 44 q-80 0 -139 -44t-94 -124.5t-52 -185.5t-17 -235z" />
<glyph unicode="1" horiz-adv-x="1231" d="M266 1122v173q74 26 171.5 72.5t167.5 88.5h150v-1306h264v-150h-737v150h281v1100q-100 -55 -297 -128z" />
<glyph unicode="2" horiz-adv-x="1238" d="M163 1347q1 0 19 11.5t36.5 21.5t49.5 25.5t66 28t76.5 24t90 18t98.5 6.5q81 0 152 -20.5t125.5 -59.5t93.5 -92.5t59 -120.5t20 -143q0 -74 -19 -142.5t-58.5 -136t-88.5 -129t-121 -137.5l-324 -343h605v-158h-834v150l443 470q114 121 162.5 216t48.5 195 q0 133 -71.5 211t-203.5 78q-43 0 -88.5 -8.5t-80.5 -20t-72 -28t-57.5 -28t-42 -24.5t-22.5 -13z" />
<glyph unicode="3" horiz-adv-x="1231" d="M134 1317q84 84 192 124.5t257 40.5q122 0 224 -41.5t166.5 -128t64.5 -203.5q0 -125 -70 -219.5t-200 -122.5q143 -27 224.5 -125.5t81.5 -238.5q0 -129 -65.5 -227t-176.5 -148t-250 -50q-78 0 -152 13.5t-127.5 34t-80 33t-43.5 22.5l53 146q180 -88 333 -88 q147 0 233.5 73t86.5 198q0 68 -26 120.5t-76 85.5t-120 50t-159 17h-8l-77 -1l-2 163h75q183 0 270.5 60.5t87.5 201.5q0 101 -83.5 157.5t-205.5 56.5q-201 0 -339 -132z" />
<glyph unicode="4" horiz-adv-x="1231" d="M105 385v128l597 943h234v-929h217v-142h-218v-385h-183v385h-647zM305 527h446v745q-65 -114 -135 -231.5t-172.5 -286t-138.5 -227.5z" />
<glyph unicode="5" horiz-adv-x="1231" d="M162 147l91 142q73 -76 164 -113t184 -37q140 0 225 89.5t85 240.5q0 130 -71.5 217t-194.5 87q-71 0 -134.5 -26.5t-93.5 -73.5l-180 17l4 766h781v-163h-606l-16 -454q44 50 115.5 75.5t151.5 25.5q194 0 317 -134.5t123 -340.5q0 -223 -142.5 -355.5t-361.5 -132.5 q-124 0 -238.5 42.5t-202.5 127.5z" />
<glyph unicode="6" horiz-adv-x="1231" d="M140 694q0 164 35.5 305.5t104.5 250t178.5 170.5t248.5 62q210 0 342 -115l-65 -140q-119 94 -275 94q-94 0 -166.5 -48t-115.5 -129t-65 -178.5t-22 -204.5q52 81 140 130.5t205 49.5q199 0 324.5 -129.5t125.5 -345.5q0 -212 -130.5 -350t-348.5 -138 q-130 0 -229 51.5t-161.5 147t-94 225.5t-31.5 292zM355 503q0 -164 80 -264t221 -100q130 0 206 91t76 233q0 143 -71 232t-206 89q-136 0 -221 -82t-85 -199z" />
<glyph unicode="7" horiz-adv-x="1231" d="M171 1295v161h921v-144l-532 -1312h-206l522 1295h-705z" />
<glyph unicode="8" horiz-adv-x="1232" d="M139 380q0 134 78.5 233.5t219.5 149.5q-123 48 -194 136.5t-71 210.5q0 171 126.5 271.5t320.5 100.5q197 0 323 -101t126 -274q0 -123 -70 -211t-194 -133q138 -49 217 -151t79 -235q0 -124 -68 -216.5t-175.5 -137.5t-236.5 -45q-131 0 -238.5 45.5t-175 138.5 t-67.5 218zM328 382q0 -119 80.5 -185t210.5 -66q132 0 212.5 65.5t80.5 187.5q0 110 -81 190t-210 108q-131 -28 -212 -107t-81 -193zM356 1113q0 -103 69.5 -173.5t193.5 -96.5q125 27 194.5 97.5t69.5 174.5q0 101 -76 159.5t-187 58.5q-112 0 -188 -58t-76 -162z" />
<glyph unicode="9" horiz-adv-x="1232" d="M131 1000q0 209 130 345.5t347 136.5q244 0 368 -182.5t124 -527.5q0 -375 -143.5 -584.5t-397.5 -209.5q-175 0 -352 93l66 152q135 -84 273 -84q173 0 267.5 139t95.5 373q1 5 1 50q-46 -80 -132.5 -123.5t-200.5 -43.5q-202 0 -324 128.5t-122 337.5zM325 1004 q0 -140 67.5 -226t204.5 -86q136 0 219.5 81.5t83.5 210.5q0 66 -17.5 125.5t-52 107.5t-91.5 76t-130 28q-132 0 -208 -88.5t-76 -228.5z" />
<glyph unicode=":" horiz-adv-x="541" d="M173 1v226h218v-226h-218zM173 832v226h218v-226h-218z" />
<glyph unicode=";" horiz-adv-x="543" d="M96 -265l107 487h210l-167 -487h-150zM169 827v226h226v-226h-226z" />
<glyph unicode="&#x3c;" horiz-adv-x="1255" d="M105 534v96l937 442v-172l-705 -321l701 -341v-171z" />
<glyph unicode="=" horiz-adv-x="1290" d="M171 683v154h947v-154h-947zM172 292v153h948v-153h-948z" />
<glyph unicode="&#x3e;" horiz-adv-x="1256" d="M215 68v174l699 318l-694 343v172l933 -473v-98z" />
<glyph unicode="?" horiz-adv-x="1058" d="M198 1245v166q59 29 144.5 48.5t165.5 19.5q189 0 304.5 -89.5t115.5 -259.5q0 -61 -23 -117.5t-60 -101t-81.5 -87.5t-89 -83.5t-81.5 -80t-60 -87t-23 -95.5v-99h-149v142q0 58 28 115t69.5 101t90.5 92.5t90.5 91t69.5 96t28 106.5q0 100 -69 148t-181 48 q-81 0 -160.5 -24t-128.5 -50zM343 -4v221h187v-221h-187z" />
<glyph unicode="@" horiz-adv-x="1768" d="M108 677q0 181 65 332.5t177 253.5t262.5 158.5t320.5 56.5q154 0 288.5 -50.5t230.5 -139t151 -215.5t55 -275q0 -144 -52.5 -269t-139.5 -198t-186 -73q-92 0 -142 49.5t-50 139.5v15q-34 -85 -112 -140.5t-180 -55.5q-60 0 -115.5 23t-100.5 65.5t-72 110t-27 149.5 q0 110 38.5 209.5t101 168.5t142.5 109.5t162 40.5q55 0 100 -16t77 -50.5t44 -83.5l28 122h155l-108 -509q-24 -109 -24 -162q0 -34 19 -59t54 -25q63 0 122.5 57t98.5 161t39 225q0 169 -81 296.5t-214.5 192t-297.5 64.5q-141 0 -263.5 -46t-214 -130.5t-144.5 -214.5 t-53 -288q0 -154 53.5 -277.5t146.5 -202.5t214 -120.5t259 -41.5q139 0 270.5 41.5t225.5 118.5l71 -82q-95 -97 -249 -148.5t-328 -51.5q-234 0 -418.5 91.5t-291.5 266.5t-107 407zM653 596q0 -86 45 -138t118 -52q76 0 141 58.5t102.5 154t37.5 203.5q0 86 -42 137 t-115 51q-49 0 -94.5 -24t-80 -65t-60 -94t-39 -112.5t-13.5 -118.5z" />
<glyph unicode="A" d="M31 0l565 1456h204l568 -1456h-209l-150 389h-623l-147 -389h-208zM438 545h514q-127 359 -256 711q-130 -357 -258 -711z" />
<glyph unicode="B" horiz-adv-x="1356" d="M202 0v1456h385q65 0 120.5 -3.5t116.5 -13t109.5 -25.5t94 -43.5t75.5 -64t48 -89t18 -116.5q0 -121 -60.5 -206t-179.5 -118q147 -25 228.5 -121t81.5 -242q0 -180 -135 -297t-385 -117h-517zM393 840h253q322 0 322 238q0 123 -88 170t-266 47h-221v-455zM394 163h294 q169 0 258.5 66t89.5 190q0 146 -85.5 204.5t-288.5 58.5h-268v-519z" />
<glyph unicode="C" d="M107 716q0 170 54.5 314.5t149.5 243t225.5 153.5t280.5 55q275 0 458 -150l-76 -130q-161 119 -368 119q-156 0 -276 -79.5t-183.5 -216.5t-63.5 -307q0 -265 146.5 -422t378.5 -157q220 0 412 144l64 -152q-209 -153 -485 -153q-145 0 -274 48.5t-228 139t-157 232.5 t-58 318z" />
<glyph unicode="D" horiz-adv-x="1539" d="M202 0v1456h358q422 0 645 -179t223 -551q0 -348 -207 -537t-596 -189h-423zM393 161h242q292 0 441.5 147.5t149.5 417.5q0 291 -159.5 430t-488.5 139h-185v-1134z" />
<glyph unicode="E" horiz-adv-x="1204" d="M202 0v1456h872v-161h-681v-458h643v-162h-643v-514h710v-161h-901z" />
<glyph unicode="F" horiz-adv-x="1117" d="M202 0v1456h840v-161h-649v-458h604v-162h-604v-675h-191z" />
<glyph unicode="G" horiz-adv-x="1527" d="M108 704q0 224 94.5 401t266.5 277t392 100q283 0 479 -146l-77 -133q-173 118 -398 118q-166 0 -294 -79t-196.5 -217.5t-68.5 -312.5q0 -262 140 -417.5t406 -155.5q181 0 318 52v412h-368v163h558v-682q-232 -106 -516 -106q-235 0 -402 90.5t-250.5 253t-83.5 382.5z " />
<glyph unicode="H" horiz-adv-x="1559" d="M202 0v1456h192v-629h773v629h190v-1456h-189v666h-774v-666h-192z" />
<glyph unicode="I" horiz-adv-x="602" d="M218 0v1456h191v-1456h-191z" />
<glyph unicode="J" horiz-adv-x="786" d="M-7 -284l27 150q105 -31 184 -31q111 0 152 65.5t41 219.5v1336h191v-1335q0 -231 -90 -339t-269 -108q-110 0 -236 42z" />
<glyph unicode="K" horiz-adv-x="1296" d="M202 0v1456h191v-656l627 656h237l-673 -701l721 -755h-242l-670 692v-692h-191z" />
<glyph unicode="L" horiz-adv-x="1109" d="M202 0v1456h191v-1295h677v-161h-868z" />
<glyph unicode="M" horiz-adv-x="1923" d="M202 0v1456h232q25 -58 225 -513.5t303 -695.5q103 241 304.5 696t227.5 513h227v-1456h-182v1145q-98 -226 -285.5 -644.5t-223.5 -500.5h-137l-432 973l-75 180v-1153h-184z" />
<glyph unicode="N" horiz-adv-x="1598" d="M202 0v1456h203l702 -1024l108 -170v1194h182v-1456h-204l-684 986l-128 200v-1186h-179z" />
<glyph unicode="O" horiz-adv-x="1626" d="M107 729q0 223 83.5 392.5t245.5 265t382 95.5q321 0 511.5 -207.5t190.5 -545.5q0 -344 -188 -547.5t-516 -203.5q-330 0 -519.5 203t-189.5 548zM311 729q0 -274 130 -432t373 -158q244 0 371 157.5t127 432.5q0 269 -127.5 430.5t-368.5 161.5q-240 0 -372.5 -162.5 t-132.5 -429.5z" />
<glyph unicode="P" horiz-adv-x="1260" d="M202 0v1456h419q110 0 191.5 -9t156.5 -35t121.5 -69.5t74 -115.5t27.5 -170q0 -110 -36 -188t-106.5 -123t-165.5 -65.5t-223 -20.5h-268v-660h-191zM393 821h265q173 0 256 52t83 183q0 49 -10 86.5t-31.5 64t-50 44t-70 27t-87 13.5t-105.5 4h-4h-3.5h-3.5h-3.5h-3.5 h-232v-474z" />
<glyph unicode="Q" horiz-adv-x="1626" d="M107 729q0 223 83.5 392.5t245.5 265t382 95.5q321 0 511.5 -207.5t190.5 -545.5q0 -266 -115 -451.5t-325 -257.5q43 -73 111 -160t97 -119t47 -51l-112 -118q-8 8 -21.5 23t-53.5 60.5t-76.5 92t-81.5 111.5t-79 124q-23 -3 -46.5 -4t-48.5 -1q-330 0 -519.5 203 t-189.5 548zM311 729q0 -274 130 -432t373 -158q244 0 371 157.5t127 432.5q0 269 -127.5 430.5t-368.5 161.5q-240 0 -372.5 -162.5t-132.5 -429.5z" />
<glyph unicode="R" horiz-adv-x="1362" d="M202 0v1456h466q90 0 161 -9.5t136.5 -35.5t108.5 -68.5t68.5 -111.5t25.5 -162q0 -137 -70 -229t-213 -122q82 -26 129.5 -90.5t96.5 -187.5l171 -440h-204l-160 428q-34 92 -62.5 135t-74.5 63.5t-127 20.5h-261v-647h-191zM392 808h271q145 0 225 57.5t80 192.5 q0 55 -11.5 95.5t-33 67.5t-57 43.5t-79.5 23.5t-104 7h-3.5h-3.5h-4h-280v-487z" />
<glyph unicode="S" horiz-adv-x="1214" d="M129 142l85 138q64 -51 168 -96t218 -45q60 0 108.5 11t84.5 31.5t60.5 51t36.5 70t12 87.5q0 52 -11 87.5t-42 67.5t-84.5 57.5t-141.5 52.5q-9 3 -43.5 12.5t-45.5 13.5q-209 60 -304.5 152t-95.5 265q0 123 64 211t171.5 130.5t247.5 42.5q295 0 449 -152l-95 -129 q-51 50 -138 85t-193 35q-138 0 -220.5 -55t-82.5 -162q0 -72 19.5 -114t71 -73t155.5 -64q2 -1 37.5 -11t47.5 -13q128 -38 210.5 -79t132.5 -94.5t70 -117.5t20 -154q0 -101 -38.5 -179.5t-106.5 -127.5t-156 -74t-192 -25q-163 0 -291.5 53.5t-187.5 110.5z" />
<glyph unicode="T" horiz-adv-x="1145" d="M10 1295v161h1124v-161h-468v-1295h-191v1295h-465z" />
<glyph unicode="U" horiz-adv-x="1495" d="M170 560v896h191v-900q0 -214 97 -315.5t288 -101.5q386 0 386 413v904h190v-894q0 -133 -32 -237t-99 -183.5t-180 -121.5t-267 -42q-574 0 -574 582z" />
<glyph unicode="V" horiz-adv-x="1348" d="M30 1456h213q18 -50 183.5 -518t252.5 -710q86 244 251.5 707t186.5 521h201l-542 -1456h-200z" />
<glyph unicode="W" horiz-adv-x="2022" d="M42 1456h205l257 -1004l54 -235q67 249 207 712.5t158 526.5h191q19 -62 159 -525.5t210 -710.5q55 247 169 707t131 529h197l-387 -1456h-223l-355 1199l-355 -1199h-220z" />
<glyph unicode="X" horiz-adv-x="1302" d="M35 0l510 740l-488 716h231l374 -560l375 560h217l-484 -709l502 -747h-227l-390 589l-399 -589h-221z" />
<glyph unicode="Y" horiz-adv-x="1239" d="M21 1456h212l389 -713l391 713h213l-512 -878v-578h-192v575z" />
<glyph unicode="Z" horiz-adv-x="1185" d="M97 0v103l738 1192h-707v161h963v-99l-744 -1196h740v-161h-990z" />
<glyph unicode="[" horiz-adv-x="660" d="M172 -227v1697h410v-139h-229v-1419h230v-139h-411z" />
<glyph unicode="\" horiz-adv-x="834" d="M53 1456h167l564 -1443h-172z" />
<glyph unicode="]" horiz-adv-x="660" d="M122 1331v139h410v-1697h-408v139h227v1419h-229z" />
<glyph unicode="^" horiz-adv-x="1628" d="M271 563l482 893h115l489 -893h-178l-370 693l-357 -693h-181z" />
<glyph unicode="_" horiz-adv-x="941" d="M-5 -123h951v-145h-951v145z" />
<glyph unicode="`" horiz-adv-x="597" d="M46 1533h240l250 -360h-153z" />
<glyph unicode="a" horiz-adv-x="1273" d="M101 513q0 150 58.5 271.5t170.5 194.5t259 73q109 0 198.5 -53t135.5 -136v163h182v-1026h-184v175q-44 -92 -131 -144.5t-201 -52.5q-115 0 -208.5 43t-154 116.5t-93 170t-32.5 205.5zM286 518q0 -173 84 -281.5t245 -108.5q153 0 233.5 106.5t80.5 286.5 q0 170 -82 275.5t-234 105.5q-160 0 -243.5 -106t-83.5 -278z" />
<glyph unicode="b" horiz-adv-x="1274" d="M164 0q7 233 7 270v1216h185v-634q37 81 128.5 140.5t221.5 59.5q213 0 339.5 -143.5t126.5 -382.5q0 -247 -132 -397.5t-337 -150.5q-123 0 -216.5 56t-133.5 140l-1 -174h-188zM349 516q0 -174 88.5 -281t241.5 -107q146 0 223.5 107t77.5 289q0 169 -80 273.5 t-222 104.5q-151 0 -240 -107t-89 -279z" />
<glyph unicode="c" horiz-adv-x="1064" d="M101 507q0 243 145 394t382 151q215 0 339 -122l-65 -122q-107 93 -261 93q-157 0 -253.5 -102.5t-96.5 -290.5q0 -174 93.5 -277t253.5 -103q155 0 280 96l58 -133q-146 -113 -352 -113q-238 0 -380.5 148.5t-142.5 380.5z" />
<glyph unicode="d" horiz-adv-x="1264" d="M101 510q0 158 56 279.5t165.5 192t257.5 70.5q118 0 206 -53t122 -127v614h185v-1220q1 -92 7 -266h-187l-4 174q-31 -80 -119.5 -138t-219.5 -58q-206 0 -337.5 145.5t-131.5 386.5zM292 514q0 -174 79 -280t226 -106q151 0 233 107t82 287q0 169 -83 274.5t-229 105.5 t-227 -106.5t-81 -281.5z" />
<glyph unicode="e" horiz-adv-x="1166" d="M101 510q0 237 138.5 389.5t366.5 152.5q144 0 246.5 -67t152 -182t49.5 -267q0 -19 -3 -49h-760q3 -172 99 -265.5t254 -93.5q184 0 326 114l55 -136q-165 -128 -391 -128q-245 0 -389 145.5t-144 386.5zM296 613h589q-10 141 -82 217t-192 76q-126 0 -210.5 -78 t-104.5 -215z" />
<glyph unicode="f" horiz-adv-x="727" d="M69 903v123h183v84q0 53 2.5 91.5t9.5 77t20 65t33.5 51.5t49.5 40.5t69 27.5t91.5 17t117.5 5h47l-4 -143q-61 0 -101 -3.5t-69 -14.5t-44.5 -24.5t-24.5 -41t-11 -56t-2 -77.5v-99h245v-123h-245v-903h-184v903h-183z" />
<glyph unicode="g" horiz-adv-x="1267" d="M101 516q0 157 54.5 277t164.5 189.5t262 69.5q117 0 199 -50t127 -128l3 152h190q-11 -166 -11 -276v-610q0 -122 -30 -222t-91.5 -176t-162.5 -118t-235 -42q-202 0 -379 87l29 159q170 -97 343 -97q164 0 254 88t90 266v107q-43 -77 -124.5 -127.5t-200.5 -50.5 q-213 0 -347.5 135.5t-134.5 366.5zM292 518q0 -171 79 -265.5t223 -94.5q156 0 237 101.5t81 272.5q0 169 -80.5 269.5t-224.5 100.5q-147 0 -231 -106t-84 -278z" />
<glyph unicode="h" horiz-adv-x="1237" d="M166 0v1486h184v-621q46 84 143 135.5t206 51.5q96 0 170 -34t119 -93.5t68 -137t23 -168.5v-619h-185v614q0 151 -52 219.5t-168 68.5q-126 0 -225 -85t-99 -195v-622h-184z" />
<glyph unicode="i" horiz-adv-x="520" d="M172 0v1026h183v-1026h-183zM173 1285v171h182v-171h-182z" />
<glyph unicode="j" horiz-adv-x="503" d="M-106 -260q52 -12 88 -12q94 0 140.5 75t46.5 233v990h174v-922q0 -56 -2.5 -102.5t-10.5 -102.5t-21.5 -100t-38 -87t-57.5 -71.5t-82 -46t-110 -17.5q-64 0 -127 12v151zM163 1277v179h183v-179h-183z" />
<glyph unicode="k" horiz-adv-x="1111" d="M174 0v1486h184v-899l445 439h252l-520 -489l556 -537h-244l-489 485v-485h-184z" />
<glyph unicode="l" horiz-adv-x="526" d="M177 0v1486h184v-1486h-184z" />
<glyph unicode="m" horiz-adv-x="1881" d="M166 1026h191l2 -166q41 90 131 141t197 51q110 0 192.5 -58t119.5 -164q56 104 151.5 163t215.5 59q175 0 265.5 -111.5t90.5 -312.5v-628h-184v613q0 136 -46 212.5t-142 76.5q-123 0 -211.5 -89.5t-94.5 -220.5v-592h-184v629q0 123 -48 198t-153 75q-121 0 -205 -81 t-92 -196v-625h-185v758q0 52 -11 268z" />
<glyph unicode="n" horiz-adv-x="1244" d="M166 1026h190l2 -161q53 88 148.5 137.5t201.5 49.5q194 0 286 -117.5t92 -356.5v-578h-184v577q0 167 -50 246t-176 79q-116 0 -211 -78.5t-103 -180.5v-643h-185v742q0 68 -2.5 139t-5.5 108z" />
<glyph unicode="o" horiz-adv-x="1258" d="M101 512q0 242 141.5 391t390.5 149q248 0 386 -148.5t138 -391.5q0 -238 -140 -386t-386 -148q-249 0 -389.5 148t-140.5 386zM294 512q0 -174 86.5 -279t250.5 -105q162 0 247.5 105t85.5 279q0 177 -86.5 283.5t-247.5 106.5q-162 0 -249 -106.5t-87 -283.5z" />
<glyph unicode="p" horiz-adv-x="1263" d="M166 1026h193l1 -184q29 85 126 147t218 62q208 0 333 -148t125 -381q0 -237 -126.5 -391t-335.5 -154q-122 0 -217 57t-123 132v-594h-183v1156q0 67 -11 298zM355 503q0 -170 82 -273t232 -103q145 0 223.5 107t78.5 282q0 174 -78.5 279.5t-222.5 105.5 q-148 0 -231.5 -109.5t-83.5 -288.5z" />
<glyph unicode="q" horiz-adv-x="1259" d="M100 512q0 242 130.5 391t351.5 149q102 0 185 -45t132 -123v142h191q-7 -189 -7 -234v-1211h-184v569q-47 -71 -130.5 -121.5t-194.5 -50.5q-216 0 -345 148t-129 386zM295 510q0 -173 79.5 -277t221.5 -104q147 0 226.5 108t79.5 294q0 167 -79.5 268.5t-219.5 101.5 q-144 0 -226 -106.5t-82 -284.5z" />
<glyph unicode="r" horiz-adv-x="803" d="M166 1026h195l2 -160q93 184 274 184q57 0 104 -12l-1 -163q-59 16 -113 16q-118 0 -190 -82.5t-72 -237.5v-571h-186v774q0 34 -3.5 97t-6.5 109z" />
<glyph unicode="s" horiz-adv-x="978" d="M126 102l51 137q57 -42 145.5 -76t180.5 -34q204 0 204 150q0 63 -46 94t-179 76l-88 30q-51 18 -86.5 34t-71.5 40.5t-58 53t-35.5 69t-13.5 91.5q0 73 30.5 129.5t83.5 89t117 49t138 16.5q203 0 342 -89l-51 -132q-135 72 -270 72q-99 0 -153 -34t-54 -96 q0 -56 32.5 -82.5t129.5 -61.5q87 -29 103 -35q63 -22 101 -38t81.5 -42.5t67 -55.5t39 -72.5t15.5 -98.5q0 -82 -31 -143.5t-84 -96t-115 -51.5t-133 -17q-133 0 -234.5 40t-157.5 84z" />
<glyph unicode="t" horiz-adv-x="803" d="M43 903v123h201v264l180 53v-317h278v-123h-278v-558q0 -55 7.5 -89t23.5 -57.5t51 -34.5t79 -15.5t119 -4.5v-144h-85q-218 2 -298.5 78t-80.5 277v548h-197z" />
<glyph unicode="u" horiz-adv-x="1234" d="M160 392v634h183v-634q0 -132 62.5 -198.5t180.5 -66.5q135 0 211 77t76 199v623h184v-772q0 -137 9 -254h-187l-5 165q-43 -79 -122 -133.5t-197 -54.5q-197 0 -296 112.5t-99 302.5z" />
<glyph unicode="v" horiz-adv-x="1056" d="M11 1026h201q36 -94 102.5 -263t121 -308.5t100.5 -264.5q43 127 95.5 266.5t118 307.5t100.5 262h197l-430 -1026h-176z" />
<glyph unicode="w" horiz-adv-x="1636" d="M31 1026h196q15 -50 106 -350.5t140 -459.5q53 159 153.5 456t119.5 354h179q18 -56 115 -354.5t149 -456.5q47 158 133.5 455t103.5 356h179l-341 -1026h-173q-13 39 -113 341.5t-152 461.5q-54 -160 -160.5 -459.5t-121.5 -343.5h-172z" />
<glyph unicode="x" horiz-adv-x="1066" d="M45 0l389 512l-366 515l201 -1l264 -381l284 381h194l-375 -502l383 -524h-200l-284 392l-295 -392h-195z" />
<glyph unicode="y" horiz-adv-x="1065" d="M41 1026h193l317 -820l297 820h185l-414 -1080q-55 -145 -160.5 -244t-249.5 -135l-75 126q249 83 309 263l17 52z" />
<glyph unicode="z" horiz-adv-x="969" d="M104 0v100l536 777h-520v149h757v-98l-535 -780h551v-148h-789z" />
<glyph unicode="{" horiz-adv-x="789" d="M126 565v126q98 7 144 61.5t47 157.5v245q0 72 17.5 127t59 100t119 69t187.5 24v-143q-111 -1 -153.5 -49t-42.5 -153v-262q0 -93 -48 -155t-127 -89q81 -33 128 -102.5t47 -167.5v-256q0 -102 45 -139t150 -37v-143q-206 1 -293.5 78.5t-87.5 225.5v246 q0 113 -43.5 170t-148.5 66z" />
<glyph unicode="|" horiz-adv-x="950" d="M387 -482v2017h176v-2017h-176z" />
<glyph unicode="}" horiz-adv-x="787" d="M107 -77q112 0 154.5 48.5t42.5 153.5v262q0 93 48 155t127 89q-81 33 -128 102.5t-47 167.5v256q0 102 -45 139t-150 37v142q206 -1 293.5 -78t87.5 -225v-246q0 -113 43.5 -170t148.5 -66v-126q-98 -7 -144.5 -61.5t-47.5 -157.5v-245q0 -72 -17.5 -127t-59 -100.5 t-118.5 -69.5t-188 -24v144z" />
<glyph unicode="~" horiz-adv-x="1253" d="M127 437q24 114 98.5 184t196.5 70q80 0 260 -74q14 -5 48 -18.5t55.5 -21.5t47 -15.5t40.5 -7.5q56 0 96.5 51.5t57.5 126.5l147 -45q-29 -130 -106 -207.5t-195 -77.5q-68 0 -227 70q-2 1 -31 12.5t-40 16t-38 14t-42.5 13.5t-35 8t-33.5 4q-125 0 -164 -167z" />
<glyph horiz-adv-x="1521" d="M188 0v1456h1145v-1456h-1145zM360 124h801v1206h-801v-1206z" />
<glyph unicode="&#xa1;" horiz-adv-x="572" d="M177 -316l55 1079h108l55 -1079h-218zM194 920v220h186v-220h-186z" />
<glyph unicode="&#xa2;" horiz-adv-x="1030" d="M101 507q0 232 132.5 381t352.5 163v201h83v-201q188 -12 298 -121l-65 -122q-96 83 -233 92v-771q138 10 249 95l58 -133q-129 -101 -307 -112v-192h-83v192q-147 8 -258 78.5t-169 187t-58 262.5zM291 508q0 -159 79 -259.5t216 -117.5v766q-135 -17 -215 -118 t-80 -271z" />
<glyph unicode="&#xa3;" horiz-adv-x="1203" d="M147 696v124h189v119q0 96 12 173t43 147.5t80.5 118t128 75t182.5 27.5q174 0 276 -75l-50 -140q-97 58 -206 58q-147 0 -212 -84.5t-65 -256.5v-162h363v-124h-361v-107q0 -151 -44.5 -263.5t-97.5 -168.5h657v-157h-887v150q84 62 133.5 175t49.5 266v105h-191z" />
<glyph unicode="&#xa4;" horiz-adv-x="1218" d="M119 1473l51 51l197 -196q105 83 243 83q135 0 243 -82l195 195l51 -51l-193 -193q96 -109 96 -254q0 -139 -89 -245l186 -185l-51 -51l-186 186q-109 -90 -252 -90t-252 91l-187 -187l-51 51l187 187q-88 106 -88 243q0 144 95 252zM307 1024q0 -132 86 -222t216 -90 t216 90t86 222q0 131 -86 220t-216 89t-216 -89t-86 -220z" />
<glyph unicode="&#xa5;" horiz-adv-x="1221" d="M8 1456h212l389 -713l391 713h213l-454 -778h273v-120h-331v-161h332v-116h-332v-281h-192v281h-331v116h331v161h-331v120h272z" />
<glyph unicode="&#xa6;" horiz-adv-x="500" d="M197 648v887h160v-887h-160zM198 399h160v-881h-160v881z" />
<glyph unicode="&#xa7;" horiz-adv-x="1069" d="M188 714q0 77 56.5 143t139.5 101q-86 54 -128 108.5t-42 134.5q0 94 53.5 160t136.5 95.5t188 29.5q134 0 251 -40v-135q-110 41 -225 41q-98 0 -161 -36t-63 -108q0 -54 52.5 -97t180.5 -103q58 -28 92.5 -46.5t75.5 -46.5t63 -54t37 -62t15 -78q0 -75 -50.5 -141.5 t-128.5 -115.5q169 -89 169 -233q0 -99 -54 -170t-141.5 -103.5t-197.5 -32.5q-158 0 -302 56v150q158 -66 290 -66q103 0 163.5 42t60.5 118q0 14 -3.5 26.5t-13 25t-18 22t-29.5 22.5t-35 21.5t-45.5 24t-50.5 25t-61 28.5q-33 16 -51 24q-111 52 -167.5 115.5 t-56.5 154.5zM363 727q0 -26 13 -49t29.5 -39.5t55.5 -37.5t65.5 -33.5t84.5 -37.5q48 30 80 75t32 96q0 18 -5 34t-11 28t-21 25t-24.5 20.5t-33 20.5t-35 18.5t-42 20t-43.5 20.5q-58 -26 -101.5 -68.5t-43.5 -92.5z" />
<glyph unicode="&#xa8;" horiz-adv-x="743" d="M77 1182v189h187v-189h-187zM480 1182v189h186v-189h-186z" />
<glyph unicode="&#xa9;" horiz-adv-x="1728" d="M108 728q0 153 60 293t161.5 241t241 161t292.5 60q154 0 294 -60t241.5 -161t162 -241t60.5 -293t-60.5 -292.5t-162 -240.5t-241.5 -160.5t-294 -59.5q-153 0 -292.5 59.5t-241 160.5t-161.5 240.5t-60 292.5zM225 725q0 -131 50.5 -251t136 -207.5t204 -139.5 t249.5 -52q130 0 248.5 52t203.5 139.5t135.5 207.5t50.5 251q0 175 -85 326t-232.5 240.5t-320.5 89.5q-130 0 -249 -53t-204.5 -141.5t-136 -209.5t-50.5 -252zM452 718q0 205 121 330t316 125q174 0 275 -101l-53 -102q-91 77 -213 77q-123 0 -205 -83t-82 -245 q0 -145 78.5 -226.5t203.5 -81.5q131 0 231 79l50 -109q-126 -95 -288 -95q-187 0 -310.5 120t-123.5 312z" />
<glyph unicode="&#xaa;" horiz-adv-x="791" d="M91 969q0 99 71 154t210 55h174v36q0 82 -33.5 117.5t-108.5 35.5q-53 0 -111.5 -13.5t-90.5 -27.5l-32 -13l-42 101q5 3 14 7.5t38.5 16t61 20.5t79 16t93.5 7q80 0 140 -23.5t99.5 -81.5t40.5 -147l-1 -312q0 -42 7 -134h-141l-8 95q-26 -51 -84 -84.5t-134 -33.5 q-106 0 -174 56.5t-68 152.5zM229 974q0 -51 32.5 -79t86.5 -28q88 0 143 55.5t55 144.5v22q-70 0 -101.5 -0.5t-77 -3.5t-64 -10t-40 -20t-28 -32.5t-6.5 -48.5z" />
<glyph unicode="&#xab;" horiz-adv-x="1118" d="M132 543l276 375h162l-247 -375l239 -373h-159zM561 543l277 375h163l-249 -375l241 -373h-161z" />
<glyph unicode="&#xac;" horiz-adv-x="1464" d="M197 646v156h1052v-568h-170v412h-882z" />
<glyph unicode="&#xad;" horiz-adv-x="679" d="M61 487v142h556v-142h-556z" />
<glyph unicode="&#xae;" horiz-adv-x="1728" d="M108 728q0 153 60 293t161.5 241t241 161t292.5 60q154 0 294 -60t241.5 -161t162 -241t60.5 -293t-60.5 -292.5t-162 -240.5t-241.5 -160.5t-294 -59.5q-153 0 -292.5 59.5t-241 160.5t-161.5 240.5t-60 292.5zM225 725q0 -131 50.5 -251t136 -207.5t204 -139.5 t249.5 -52q130 0 248.5 52t203.5 139.5t135.5 207.5t50.5 251q0 175 -85 326t-232.5 240.5t-320.5 89.5q-130 0 -249 -53t-204.5 -141.5t-136 -209.5t-50.5 -252zM544 278v909h283q212 0 309 -65.5t97 -193.5q0 -97 -46 -160t-162 -87l210 -403h-184l-184 382h-159v-382 h-164zM706 777h117q128 0 184 28t56 109q0 91 -46 116t-195 25h-116v-278z" />
<glyph unicode="&#xaf;" horiz-adv-x="720" d="M68 1242v124h584v-124h-584z" />
<glyph unicode="&#xb0;" horiz-adv-x="854" d="M123 1152q0 125 87.5 211.5t216.5 86.5t216.5 -86.5t87.5 -211.5q0 -124 -88 -211t-216 -87t-216 87t-88 211zM247 1153q0 -78 49.5 -131.5t130.5 -53.5t130.5 53.5t49.5 131.5q0 77 -49.5 130t-130.5 53q-80 0 -130 -53t-50 -130z" />
<glyph unicode="&#xb1;" horiz-adv-x="1232" d="M184 0v132h873v-132h-873zM194 594v155h336v340h170v-340h334v-155h-329v-339h-173v339h-338z" />
<glyph unicode="&#xb2;" horiz-adv-x="1114" d="M309 619v100l274 266q142 136 142 239q0 51 -36 81.5t-101 30.5q-62 0 -114 -32t-83 -92l-77 83q38 76 112.5 118.5t168.5 42.5q118 0 192.5 -62t74.5 -168q0 -81 -51 -160.5t-150 -171.5l-178 -166h376v-109h-550z" />
<glyph unicode="&#xb3;" horiz-adv-x="1064" d="M274 1357q49 46 121 72.5t146 26.5q113 0 188 -59.5t75 -165.5q0 -62 -35 -111t-113 -69q83 -20 126.5 -74t43.5 -126q0 -116 -81 -183t-205 -67q-75 0 -145.5 24.5t-119.5 70.5l56 97q95 -78 202 -78q72 0 115.5 37.5t43.5 101.5q0 66 -51.5 100.5t-145.5 34.5h-73v113 h68q84 0 132 30.5t48 90.5q0 58 -36.5 88t-100.5 30q-110 0 -203 -76z" />
<glyph unicode="&#xb4;" horiz-adv-x="607" d="M73 1172l236 360h237l-319 -360h-154z" />
<glyph unicode="&#xb5;" horiz-adv-x="1197" d="M154 -288h182v311q84 -43 207 -43q214 0 337 155l10 -135h157v1082h-181v-823q-111 -146 -298 -146q-123 0 -177.5 74.5t-54.5 220.5v674h-182v-1370z" />
<glyph unicode="&#xb6;" horiz-adv-x="1210" d="M130 1133q0 75 22.5 131t62 92.5t99.5 59t129 31.5t156 9h450v-141h-104v-1494h-135v1494h-191v-1494h-136v992q-150 4 -251.5 88.5t-101.5 231.5z" />
<glyph unicode="&#xb7;" horiz-adv-x="600" />
<glyph unicode="&#xb8;" horiz-adv-x="529" d="M45 -419l13 97q21 -9 67.5 -18t86.5 -9h3q51 0 79.5 20t28.5 55q0 34 -39 60.5t-121 26.5h-22l32 196h97l-20 -128q105 -10 166.5 -52t61.5 -108q0 -40 -19.5 -72.5t-54 -53t-80.5 -31.5t-99 -11h-2h-2q-95 0 -176 28z" />
<glyph unicode="&#xb9;" horiz-adv-x="1055" d="M309 1225v127q29 9 100.5 39.5t88.5 41.5l110 8v-708h140v-115h-420v118h150v555q-23 -12 -169 -66z" />
<glyph unicode="&#xba;" horiz-adv-x="885" d="M78 1111q0 154 98 254.5t269 100.5q172 0 268.5 -101t96.5 -258q0 -152 -96.5 -253.5t-266.5 -101.5q-176 0 -272.5 100.5t-96.5 258.5zM234 1109q0 -109 55.5 -169.5t157.5 -60.5q97 0 154 61.5t57 164.5q0 107 -57.5 169t-155.5 62q-96 0 -153.5 -61.5t-57.5 -165.5z " />
<glyph unicode="&#xbb;" horiz-adv-x="1118" d="M135 168l247 375l-239 373h160l271 -373l-277 -375h-162zM565 168l247 375l-239 373h159l271 -373l-276 -375h-162z" />
<glyph unicode="&#xbc;" horiz-adv-x="1970" d="M197 1253l1 118q18 5 105 41.5t99 43.5h118v-714h150v-111h-458v113h166v573zM492 0l902 1456h159l-899 -1456h-162zM1146 190v95l369 515h146v-500h110v-110h-112v-190h-135v190h-378zM1278 300h244v343z" />
<glyph unicode="&#xbd;" horiz-adv-x="2126" d="M196 1253l1 118q18 5 105 41.5t99 43.5h117v-714h151v-111h-459v113h166v573zM461 0l902 1456h158l-898 -1456h-162zM1283 0v126l272 251q81 75 111 118.5t30 93.5q0 58 -33.5 91.5t-98.5 33.5q-59 0 -114.5 -31t-91.5 -86l-74 95q45 70 121 109t167 39 q123 0 198.5 -65.5t75.5 -182.5q0 -40 -10 -75t-24 -62.5t-44 -60.5t-55.5 -57t-72.5 -65l-166 -148h367v-124h-558z" />
<glyph unicode="&#xbe;" horiz-adv-x="2126" d="M205 1362q53 45 125.5 70.5t146.5 25.5q115 0 190.5 -58.5t75.5 -163.5q0 -58 -36 -106.5t-108 -72.5q82 -24 124.5 -77.5t42.5 -122.5q0 -119 -83.5 -186.5t-208.5 -67.5q-158 0 -267 94l57 95q101 -77 202 -77q69 0 113.5 40.5t44.5 103.5t-49.5 96.5t-138.5 33.5h-79 v111h75q77 0 123.5 33.5t46.5 90.5t-38.5 91t-101.5 34q-103 0 -201 -75zM528 0l903 1456h159l-899 -1456h-163zM1157 190v95l369 515h146v-500h110v-110h-112v-190h-135v190h-378zM1289 300h244v343z" />
<glyph unicode="&#xbf;" horiz-adv-x="1032" d="M110 2q0 61 23 117.5t60 101t81.5 87.5t89 83.5t81.5 80t60 87t23 95.5v99h149v-142q0 -58 -28 -115t-69.5 -101t-90.5 -92.5t-90.5 -91t-69.5 -96t-28 -106.5q0 -100 69 -148t181 -48q81 0 160.5 24t128.5 50v-166q-59 -29 -144.5 -48.5t-165.5 -19.5 q-189 0 -304.5 89.5t-115.5 259.5zM508 915v221h187v-221h-187z" />
<glyph unicode="&#xc0;" d="M31 0l565 1456h204l568 -1456h-209l-150 389h-623l-147 -389h-208zM282 1963h240l250 -360h-153zM438 545h514q-127 359 -256 711q-130 -357 -258 -711z" />
<glyph unicode="&#xc1;" d="M31 0l565 1456h204l568 -1456h-209l-150 389h-623l-147 -389h-208zM438 545h514q-127 359 -256 711q-130 -357 -258 -711zM631 1602l236 360h237l-319 -360h-154z" />
<glyph unicode="&#xc2;" d="M31 0l565 1456h204l568 -1456h-209l-150 389h-623l-147 -389h-208zM387 1584l234 347h162l236 -347h-156l-162 218l-164 -218h-150zM438 545h514q-127 359 -256 711q-130 -357 -258 -711z" />
<glyph unicode="&#xc3;" d="M31 0l565 1456h204l568 -1456h-209l-150 389h-623l-147 -389h-208zM374 1613q0 106 48.5 169.5t131.5 63.5q21 0 45 -5.5t46.5 -14.5t45 -20t44 -21.5t41 -19.5t37.5 -14.5t32 -5.5q32 0 45.5 22t14.5 77h122q0 -112 -44.5 -175.5t-128.5 -63.5q-38 0 -96.5 25 t-112.5 50.5t-83 25.5q-61 0 -70 -93h-118zM438 545h514q-127 359 -256 711q-130 -357 -258 -711z" />
<glyph unicode="&#xc4;" d="M31 0l565 1456h204l568 -1456h-209l-150 389h-623l-147 -389h-208zM405 1612v189h187v-189h-187zM438 545h514q-127 359 -256 711q-130 -357 -258 -711zM808 1612v189h186v-189h-186z" />
<glyph unicode="&#xc5;" d="M31 0l565 1456h204l568 -1456h-209l-150 389h-623l-147 -389h-208zM438 545h514q-127 359 -256 711q-130 -357 -258 -711zM497 1762q0 84 58 139.5t143 55.5t143 -55.5t58 -139.5q0 -83 -58 -139t-143 -56t-143 56t-58 139zM591 1762q0 -46 31 -78t75 -32t75 32t31 78 t-31 78t-75 32t-75 -32t-31 -78z" />
<glyph unicode="&#xc6;" horiz-adv-x="2062" d="M25 0l844 1456h1018v-165h-689l39 -462h618v-158h-602l46 -508h613v-163h-794l-35 401h-612l-228 -401h-218zM546 548h523l-55 743h-48z" />
<glyph unicode="&#xc7;" d="M107 716q0 170 54.5 314.5t149.5 243t225.5 153.5t280.5 55q275 0 458 -150l-76 -130q-161 119 -368 119q-156 0 -276 -79.5t-183.5 -216.5t-63.5 -307q0 -265 146.5 -422t378.5 -157q220 0 412 144l64 -152q-209 -153 -485 -153q-145 0 -274 48.5t-228 139t-157 232.5 t-58 318zM636 -419l13 97q21 -9 67.5 -18t86.5 -9h3q51 0 79.5 20t28.5 55q0 34 -39 60.5t-121 26.5h-22l32 196h97l-20 -128q105 -10 166.5 -52t61.5 -108q0 -40 -19.5 -72.5t-54 -53t-80.5 -31.5t-99 -11h-2h-2q-95 0 -176 28z" />
<glyph unicode="&#xc8;" horiz-adv-x="1205" d="M202 0v1456h872v-161h-681v-458h643v-162h-643v-514h710v-161h-901zM228 1963h240l250 -360h-153z" />
<glyph unicode="&#xc9;" horiz-adv-x="1205" d="M202 0v1456h872v-161h-681v-458h643v-162h-643v-514h710v-161h-901zM577 1602l236 360h237l-319 -360h-154z" />
<glyph unicode="&#xca;" horiz-adv-x="1205" d="M202 0v1456h872v-161h-681v-458h643v-162h-643v-514h710v-161h-901zM334 1584l234 347h162l236 -347h-156l-162 218l-164 -218h-150z" />
<glyph unicode="&#xcb;" horiz-adv-x="1205" d="M202 0v1456h872v-161h-681v-458h643v-162h-643v-514h710v-161h-901zM351 1612v189h187v-189h-187zM754 1612v189h186v-189h-186z" />
<glyph unicode="&#xcc;" horiz-adv-x="602" d="M-96 1963h240l250 -360h-153zM218 0v1456h191v-1456h-191z" />
<glyph unicode="&#xcd;" horiz-adv-x="602" d="M218 0v1456h191v-1456h-191zM253 1602l236 360h237l-319 -360h-154z" />
<glyph unicode="&#xce;" horiz-adv-x="602" d="M9 1584l234 347h162l236 -347h-156l-162 218l-164 -218h-150zM218 0v1456h191v-1456h-191z" />
<glyph unicode="&#xcf;" horiz-adv-x="602" d="M27 1612v189h187v-189h-187zM218 0v1456h191v-1456h-191zM430 1612v189h186v-189h-186z" />
<glyph unicode="&#xd0;" horiz-adv-x="1540" d="M45 704v142h556v-142h-556zM202 0v1456h358q422 0 645 -179t223 -551q0 -348 -207 -537t-596 -189h-423zM393 161h242q292 0 441.5 147.5t149.5 417.5q0 291 -159.5 430t-488.5 139h-185v-1134z" />
<glyph unicode="&#xd1;" horiz-adv-x="1598" d="M202 0v1456h203l702 -1024l108 -170v1194h182v-1456h-204l-684 986l-128 200v-1186h-179zM485 1613q0 106 48.5 169.5t131.5 63.5q21 0 45 -5.5t46.5 -14.5t45 -20t44 -21.5t41 -19.5t37.5 -14.5t32 -5.5q32 0 45.5 22t14.5 77h122q0 -112 -44.5 -175.5t-128.5 -63.5 q-38 0 -96.5 25t-112.5 50.5t-83 25.5q-61 0 -70 -93h-118z" />
<glyph unicode="&#xd2;" horiz-adv-x="1626" d="M107 729q0 223 83.5 392.5t245.5 265t382 95.5q321 0 511.5 -207.5t190.5 -545.5q0 -344 -188 -547.5t-516 -203.5q-330 0 -519.5 203t-189.5 548zM311 729q0 -274 130 -432t373 -158q244 0 371 157.5t127 432.5q0 269 -127.5 430.5t-368.5 161.5q-240 0 -372.5 -162.5 t-132.5 -429.5zM400 1963h240l250 -360h-153z" />
<glyph unicode="&#xd3;" horiz-adv-x="1626" d="M107 729q0 223 83.5 392.5t245.5 265t382 95.5q321 0 511.5 -207.5t190.5 -545.5q0 -344 -188 -547.5t-516 -203.5q-330 0 -519.5 203t-189.5 548zM311 729q0 -274 130 -432t373 -158q244 0 371 157.5t127 432.5q0 269 -127.5 430.5t-368.5 161.5q-240 0 -372.5 -162.5 t-132.5 -429.5zM749 1602l236 360h237l-319 -360h-154z" />
<glyph unicode="&#xd4;" horiz-adv-x="1626" d="M107 729q0 223 83.5 392.5t245.5 265t382 95.5q321 0 511.5 -207.5t190.5 -545.5q0 -344 -188 -547.5t-516 -203.5q-330 0 -519.5 203t-189.5 548zM311 729q0 -274 130 -432t373 -158q244 0 371 157.5t127 432.5q0 269 -127.5 430.5t-368.5 161.5q-240 0 -372.5 -162.5 t-132.5 -429.5zM506 1584l234 347h162l236 -347h-156l-162 218l-164 -218h-150z" />
<glyph unicode="&#xd5;" horiz-adv-x="1626" d="M107 729q0 223 83.5 392.5t245.5 265t382 95.5q321 0 511.5 -207.5t190.5 -545.5q0 -344 -188 -547.5t-516 -203.5q-330 0 -519.5 203t-189.5 548zM311 729q0 -274 130 -432t373 -158q244 0 371 157.5t127 432.5q0 269 -127.5 430.5t-368.5 161.5q-240 0 -372.5 -162.5 t-132.5 -429.5zM493 1613q0 106 48.5 169.5t131.5 63.5q21 0 45 -5.5t46.5 -14.5t45 -20t44 -21.5t41 -19.5t37.5 -14.5t32 -5.5q32 0 45.5 22t14.5 77h122q0 -112 -44.5 -175.5t-128.5 -63.5q-38 0 -96.5 25t-112.5 50.5t-83 25.5q-61 0 -70 -93h-118z" />
<glyph unicode="&#xd6;" horiz-adv-x="1626" d="M107 729q0 223 83.5 392.5t245.5 265t382 95.5q321 0 511.5 -207.5t190.5 -545.5q0 -344 -188 -547.5t-516 -203.5q-330 0 -519.5 203t-189.5 548zM311 729q0 -274 130 -432t373 -158q244 0 371 157.5t127 432.5q0 269 -127.5 430.5t-368.5 161.5q-240 0 -372.5 -162.5 t-132.5 -429.5zM523 1612v189h187v-189h-187zM926 1612v189h186v-189h-186z" />
<glyph unicode="&#xd7;" horiz-adv-x="1231" d="M218 262l289 291l-289 289l117 118l290 -290l289 290l118 -118l-290 -289l290 -290l-118 -118l-289 288l-290 -288z" />
<glyph unicode="&#xd8;" horiz-adv-x="1626" d="M107 729q0 -221 80.5 -387.5t230.5 -260.5l-88 -164l93 -48l88 165q136 -56 305 -56q328 0 516 203.5t188 547.5q0 140 -35 262t-101.5 216.5t-160.5 158.5l85 159l-92 47l-83 -155q-69 32 -148.5 48.5t-166.5 16.5q-220 0 -382 -95.5t-245.5 -265t-83.5 -392.5zM311 729 q0 267 132.5 429.5t372.5 162.5q34 0 66.5 -3.5t62 -10.5t56.5 -16.5t52 -22.5l-551 -1030q-94 75 -142.5 200.5t-48.5 290.5zM591 183l548 1025q85 -77 129 -200t44 -279q0 -275 -127 -432.5t-371 -157.5q-125 0 -223 44z" />
<glyph unicode="&#xd9;" horiz-adv-x="1495" d="M170 560v896h191v-900q0 -214 97 -315.5t288 -101.5q386 0 386 413v904h190v-894q0 -133 -32 -237t-99 -183.5t-180 -121.5t-267 -42q-574 0 -574 582zM330 1963h240l250 -360h-153z" />
<glyph unicode="&#xda;" horiz-adv-x="1495" d="M170 560v896h191v-900q0 -214 97 -315.5t288 -101.5q386 0 386 413v904h190v-894q0 -133 -32 -237t-99 -183.5t-180 -121.5t-267 -42q-574 0 -574 582zM679 1602l236 360h237l-319 -360h-154z" />
<glyph unicode="&#xdb;" horiz-adv-x="1495" d="M170 560v896h191v-900q0 -214 97 -315.5t288 -101.5q386 0 386 413v904h190v-894q0 -133 -32 -237t-99 -183.5t-180 -121.5t-267 -42q-574 0 -574 582zM435 1584l234 347h162l236 -347h-156l-162 218l-164 -218h-150z" />
<glyph unicode="&#xdc;" horiz-adv-x="1495" d="M170 560v896h191v-900q0 -214 97 -315.5t288 -101.5q386 0 386 413v904h190v-894q0 -133 -32 -237t-99 -183.5t-180 -121.5t-267 -42q-574 0 -574 582zM453 1612v189h187v-189h-187zM856 1612v189h186v-189h-186z" />
<glyph unicode="&#xdd;" horiz-adv-x="1239" d="M21 1456h212l389 -713l391 713h213l-512 -878v-578h-192v575zM572 1602l236 360h237l-319 -360h-154z" />
<glyph unicode="&#xde;" horiz-adv-x="1280" d="M200 0v1456h191v-244h207q110 0 194.5 -10t165 -38.5t132.5 -76t83.5 -126t31.5 -184.5q0 -90 -28 -162t-78.5 -121.5t-121.5 -83t-154.5 -48.5t-180.5 -15h-251v-347h-191zM391 508h258q163 0 257 66.5t94 201.5q0 81 -26 136t-79 85t-121 42t-164 12h-219v-543z" />
<glyph unicode="&#xdf;" horiz-adv-x="1251" d="M166 1026q0 231 115.5 354t321.5 123q188 0 300 -88.5t112 -233.5q0 -117 -60 -195.5t-186 -131.5q-23 -13 -67 -27q31 -8 69 -22q406 -147 406 -462q0 -165 -108.5 -266t-269.5 -101q-169 0 -322 61l29 145q16 -7 34 -13t57 -18t82.5 -19.5t81.5 -7.5q99 0 159.5 53.5 t60.5 153.5q0 137 -103 232.5t-322 187.5v140q146 50 207 117.5t61 165.5q0 83 -60.5 132t-161.5 49q-122 0 -188 -87.5t-66 -239.5v-1028h-181z" />
<glyph unicode="&#xe0;" horiz-adv-x="1273" d="M101 513q0 150 58.5 271.5t170.5 194.5t259 73q109 0 198.5 -53t135.5 -136v163h182v-1026h-184v175q-44 -92 -131 -144.5t-201 -52.5q-115 0 -208.5 43t-154 116.5t-93 170t-32.5 205.5zM176 1533h240l250 -360h-153zM286 518q0 -173 84 -281.5t245 -108.5 q153 0 233.5 106.5t80.5 286.5q0 170 -82 275.5t-234 105.5q-160 0 -243.5 -106t-83.5 -278z" />
<glyph unicode="&#xe1;" horiz-adv-x="1273" d="M101 513q0 150 58.5 271.5t170.5 194.5t259 73q109 0 198.5 -53t135.5 -136v163h182v-1026h-184v175q-44 -92 -131 -144.5t-201 -52.5q-115 0 -208.5 43t-154 116.5t-93 170t-32.5 205.5zM286 518q0 -173 84 -281.5t245 -108.5q153 0 233.5 106.5t80.5 286.5 q0 170 -82 275.5t-234 105.5q-160 0 -243.5 -106t-83.5 -278zM525 1172l236 360h237l-319 -360h-154z" />
<glyph unicode="&#xe2;" horiz-adv-x="1273" d="M101 513q0 150 58.5 271.5t170.5 194.5t259 73q109 0 198.5 -53t135.5 -136v163h182v-1026h-184v175q-44 -92 -131 -144.5t-201 -52.5q-115 0 -208.5 43t-154 116.5t-93 170t-32.5 205.5zM281 1154l234 347h162l236 -347h-156l-162 218l-164 -218h-150zM286 518 q0 -173 84 -281.5t245 -108.5q153 0 233.5 106.5t80.5 286.5q0 170 -82 275.5t-234 105.5q-160 0 -243.5 -106t-83.5 -278z" />
<glyph unicode="&#xe3;" horiz-adv-x="1273" d="M101 513q0 150 58.5 271.5t170.5 194.5t259 73q109 0 198.5 -53t135.5 -136v163h182v-1026h-184v175q-44 -92 -131 -144.5t-201 -52.5q-115 0 -208.5 43t-154 116.5t-93 170t-32.5 205.5zM268 1183q0 106 48.5 169.5t131.5 63.5q21 0 45 -5.5t46.5 -14.5t45 -20t44 -21.5 t41 -19.5t37.5 -14.5t32 -5.5q32 0 45.5 22t14.5 77h122q0 -112 -44.5 -175.5t-128.5 -63.5q-38 0 -96.5 25t-112.5 50.5t-83 25.5q-61 0 -70 -93h-118zM286 518q0 -173 84 -281.5t245 -108.5q153 0 233.5 106.5t80.5 286.5q0 170 -82 275.5t-234 105.5q-160 0 -243.5 -106 t-83.5 -278z" />
<glyph unicode="&#xe4;" horiz-adv-x="1273" d="M101 513q0 150 58.5 271.5t170.5 194.5t259 73q109 0 198.5 -53t135.5 -136v163h182v-1026h-184v175q-44 -92 -131 -144.5t-201 -52.5q-115 0 -208.5 43t-154 116.5t-93 170t-32.5 205.5zM286 518q0 -173 84 -281.5t245 -108.5q153 0 233.5 106.5t80.5 286.5 q0 170 -82 275.5t-234 105.5q-160 0 -243.5 -106t-83.5 -278zM299 1182v189h187v-189h-187zM702 1182v189h186v-189h-186z" />
<glyph unicode="&#xe5;" horiz-adv-x="1273" d="M101 513q0 150 58.5 271.5t170.5 194.5t259 73q109 0 198.5 -53t135.5 -136v163h182v-1026h-184v175q-44 -92 -131 -144.5t-201 -52.5q-115 0 -208.5 43t-154 116.5t-93 170t-32.5 205.5zM286 518q0 -173 84 -281.5t245 -108.5q153 0 233.5 106.5t80.5 286.5 q0 170 -82 275.5t-234 105.5q-160 0 -243.5 -106t-83.5 -278zM391 1332q0 84 58 139.5t143 55.5t143 -55.5t58 -139.5q0 -83 -58 -139t-143 -56t-143 56t-58 139zM485 1332q0 -46 31 -78t75 -32t75 32t31 78t-31 78t-75 32t-75 -32t-31 -78z" />
<glyph unicode="&#xe6;" horiz-adv-x="1791" d="M86 285q0 70 19.5 123.5t60 89.5t92.5 59.5t128 36t153.5 17t181.5 4.5h68q0 131 -67 210t-191 79q-147 0 -322 -82l-55 130q182 101 403 101q71 0 138 -23.5t122.5 -73t80.5 -116.5q57 99 150 156t210 57q139 0 238 -68t148 -186t49 -276l-2 -37h-714v-27 q8 -228 163 -301q66 -30 153 -30q37 0 75 6t68 16t58 21.5t48 23.5t35.5 22t22.5 16l8 6l54 -134q-6 -5 -16.5 -13.5t-47 -30.5t-77.5 -39t-105 -30.5t-131 -13.5q-139 0 -245.5 66t-158.5 182q-52 -111 -160.5 -180.5t-252.5 -69.5q-172 0 -277 82.5t-105 226.5zM269 294 q0 -86 60 -127t153 -41q80 0 141 30t96.5 81.5t53 114t18.5 133.5h-153q-83 0 -146.5 -9t-115.5 -29.5t-79.5 -59t-27.5 -93.5zM978 612h553l-2 16q-12 123 -82 200t-185 77q-122 0 -195.5 -84.5t-88.5 -208.5z" />
<glyph unicode="&#xe7;" horiz-adv-x="1064" d="M101 507q0 243 145 394t382 151q215 0 339 -122l-65 -122q-107 93 -261 93q-157 0 -253.5 -102.5t-96.5 -290.5q0 -174 93.5 -277t253.5 -103q155 0 280 96l58 -133q-146 -113 -352 -113q-238 0 -380.5 148.5t-142.5 380.5zM447 -419l13 97q21 -9 67.5 -18t86.5 -9h3 q51 0 79.5 20t28.5 55q0 34 -39 60.5t-121 26.5h-22l32 196h97l-20 -128q105 -10 166.5 -52t61.5 -108q0 -40 -19.5 -72.5t-54 -53t-80.5 -31.5t-99 -11h-2h-2q-95 0 -176 28z" />
<glyph unicode="&#xe8;" horiz-adv-x="1166" d="M101 510q0 237 138.5 389.5t366.5 152.5q144 0 246.5 -67t152 -182t49.5 -267q0 -19 -3 -49h-760q3 -172 99 -265.5t254 -93.5q184 0 326 114l55 -136q-165 -128 -391 -128q-245 0 -389 145.5t-144 386.5zM174 1533h240l250 -360h-153zM296 613h589q-10 141 -82 217 t-192 76q-126 0 -210.5 -78t-104.5 -215z" />
<glyph unicode="&#xe9;" horiz-adv-x="1166" d="M101 510q0 237 138.5 389.5t366.5 152.5q144 0 246.5 -67t152 -182t49.5 -267q0 -19 -3 -49h-760q3 -172 99 -265.5t254 -93.5q184 0 326 114l55 -136q-165 -128 -391 -128q-245 0 -389 145.5t-144 386.5zM296 613h589q-10 141 -82 217t-192 76q-126 0 -210.5 -78 t-104.5 -215zM523 1172l236 360h237l-319 -360h-154z" />
<glyph unicode="&#xea;" horiz-adv-x="1166" d="M101 510q0 237 138.5 389.5t366.5 152.5q144 0 246.5 -67t152 -182t49.5 -267q0 -19 -3 -49h-760q3 -172 99 -265.5t254 -93.5q184 0 326 114l55 -136q-165 -128 -391 -128q-245 0 -389 145.5t-144 386.5zM279 1154l234 347h162l236 -347h-156l-162 218l-164 -218h-150z M296 613h589q-10 141 -82 217t-192 76q-126 0 -210.5 -78t-104.5 -215z" />
<glyph unicode="&#xeb;" horiz-adv-x="1166" d="M101 510q0 237 138.5 389.5t366.5 152.5q144 0 246.5 -67t152 -182t49.5 -267q0 -19 -3 -49h-760q3 -172 99 -265.5t254 -93.5q184 0 326 114l55 -136q-165 -128 -391 -128q-245 0 -389 145.5t-144 386.5zM296 613h589q-10 141 -82 217t-192 76q-126 0 -210.5 -78 t-104.5 -215zM297 1182v189h187v-189h-187zM700 1182v189h186v-189h-186z" />
<glyph unicode="&#xec;" horiz-adv-x="534" d="M-149 1533h240l250 -360h-153zM176 1026h185l1 -1026h-185z" />
<glyph unicode="&#xed;" horiz-adv-x="534" d="M176 1026h185l1 -1026h-185zM200 1172l236 360h237l-319 -360h-154z" />
<glyph unicode="&#xee;" horiz-adv-x="534" d="M-44 1154l234 347h162l236 -347h-156l-162 218l-164 -218h-150zM176 1026h185l1 -1026h-185z" />
<glyph unicode="&#xef;" horiz-adv-x="534" d="M-26 1182v189h187v-189h-187zM176 1026h185l1 -1026h-185zM377 1182v189h186v-189h-186z" />
<glyph unicode="&#xf0;" horiz-adv-x="1223" d="M107 454q0 200 136 325.5t349 125.5q117 0 206.5 -53t128.5 -126q-3 90 -68.5 239t-176.5 246l-221 -142l-66 102l186 119q-146 97 -313 137l71 125q204 -46 379 -175l216 139l66 -102l-185 -118q290 -271 290 -673q0 -310 -132.5 -477.5t-375.5 -167.5 q-222 0 -356 135.5t-134 340.5zM299 452q0 -143 85 -228.5t217 -85.5q139 0 220.5 92.5t81.5 244.5q0 121 -91.5 199t-215.5 78q-133 0 -215 -80.5t-82 -219.5z" />
<glyph unicode="&#xf1;" horiz-adv-x="1244" d="M166 1026h190l2 -161q53 88 148.5 137.5t201.5 49.5q194 0 286 -117.5t92 -356.5v-578h-184v577q0 167 -50 246t-176 79q-116 0 -211 -78.5t-103 -180.5v-643h-185v742q0 68 -2.5 139t-5.5 108zM360 1183q0 106 48.5 169.5t131.5 63.5q21 0 45 -5.5t46.5 -14.5t45 -20 t44 -21.5t41 -19.5t37.5 -14.5t32 -5.5q32 0 45.5 22t14.5 77h122q0 -112 -44.5 -175.5t-128.5 -63.5q-38 0 -96.5 25t-112.5 50.5t-83 25.5q-61 0 -70 -93h-118z" />
<glyph unicode="&#xf2;" horiz-adv-x="1258" d="M101 512q0 242 141.5 391t390.5 149q248 0 386 -148.5t138 -391.5q0 -238 -140 -386t-386 -148q-249 0 -389.5 148t-140.5 386zM216 1533h240l250 -360h-153zM294 512q0 -174 86.5 -279t250.5 -105q162 0 247.5 105t85.5 279q0 177 -86.5 283.5t-247.5 106.5 q-162 0 -249 -106.5t-87 -283.5z" />
<glyph unicode="&#xf3;" horiz-adv-x="1258" d="M101 512q0 242 141.5 391t390.5 149q248 0 386 -148.5t138 -391.5q0 -238 -140 -386t-386 -148q-249 0 -389.5 148t-140.5 386zM294 512q0 -174 86.5 -279t250.5 -105q162 0 247.5 105t85.5 279q0 177 -86.5 283.5t-247.5 106.5q-162 0 -249 -106.5t-87 -283.5zM565 1172 l236 360h237l-319 -360h-154z" />
<glyph unicode="&#xf4;" horiz-adv-x="1258" d="M101 512q0 242 141.5 391t390.5 149q248 0 386 -148.5t138 -391.5q0 -238 -140 -386t-386 -148q-249 0 -389.5 148t-140.5 386zM294 512q0 -174 86.5 -279t250.5 -105q162 0 247.5 105t85.5 279q0 177 -86.5 283.5t-247.5 106.5q-162 0 -249 -106.5t-87 -283.5zM321 1154 l234 347h162l236 -347h-156l-162 218l-164 -218h-150z" />
<glyph unicode="&#xf5;" horiz-adv-x="1258" d="M101 512q0 242 141.5 391t390.5 149q248 0 386 -148.5t138 -391.5q0 -238 -140 -386t-386 -148q-249 0 -389.5 148t-140.5 386zM294 512q0 -174 86.5 -279t250.5 -105q162 0 247.5 105t85.5 279q0 177 -86.5 283.5t-247.5 106.5q-162 0 -249 -106.5t-87 -283.5zM309 1183 q0 106 48.5 169.5t131.5 63.5q21 0 45 -5.5t46.5 -14.5t45 -20t44 -21.5t41 -19.5t37.5 -14.5t32 -5.5q32 0 45.5 22t14.5 77h122q0 -112 -44.5 -175.5t-128.5 -63.5q-38 0 -96.5 25t-112.5 50.5t-83 25.5q-61 0 -70 -93h-118z" />
<glyph unicode="&#xf6;" horiz-adv-x="1258" d="M101 512q0 242 141.5 391t390.5 149q248 0 386 -148.5t138 -391.5q0 -238 -140 -386t-386 -148q-249 0 -389.5 148t-140.5 386zM294 512q0 -174 86.5 -279t250.5 -105q162 0 247.5 105t85.5 279q0 177 -86.5 283.5t-247.5 106.5q-162 0 -249 -106.5t-87 -283.5zM339 1182 v189h187v-189h-187zM742 1182v189h186v-189h-186z" />
<glyph unicode="&#xf7;" horiz-adv-x="1286" d="M157 476v156h965v-156h-965zM524 865v225h237v-225h-237zM525 11v226h237v-226h-237z" />
<glyph unicode="&#xf8;" horiz-adv-x="1254" d="M101 512q0 -161 66.5 -284.5t190.5 -188.5l-97 -215l87 -38l99 218q84 -26 184 -26q246 0 386 148t140 386q0 83 -17 156.5t-49.5 135.5t-82 110.5t-112.5 80.5l88 194l-88 38l-89 -198q-40 12 -83.5 17.5t-90.5 5.5q-249 0 -390.5 -149t-141.5 -391zM294 512 q0 177 87 283.5t249 106.5q60 0 112 -16l-315 -696q-66 49 -99.5 132t-33.5 190zM511 146l316 697q67 -50 102 -135t35 -196q0 -174 -85.5 -279t-247.5 -105q-33 0 -63 4.5t-57 13.5z" />
<glyph unicode="&#xf9;" horiz-adv-x="1235" d="M160 392v634h183v-634q0 -132 62.5 -198.5t180.5 -66.5q135 0 211 77t76 199v623h184v-772q0 -137 9 -254h-187l-5 165q-43 -79 -122 -133.5t-197 -54.5q-197 0 -296 112.5t-99 302.5zM191 1533h240l250 -360h-153z" />
<glyph unicode="&#xfa;" horiz-adv-x="1235" d="M160 392v634h183v-634q0 -132 62.5 -198.5t180.5 -66.5q135 0 211 77t76 199v623h184v-772q0 -137 9 -254h-187l-5 165q-43 -79 -122 -133.5t-197 -54.5q-197 0 -296 112.5t-99 302.5zM540 1172l236 360h237l-319 -360h-154z" />
<glyph unicode="&#xfb;" horiz-adv-x="1235" d="M160 392v634h183v-634q0 -132 62.5 -198.5t180.5 -66.5q135 0 211 77t76 199v623h184v-772q0 -137 9 -254h-187l-5 165q-43 -79 -122 -133.5t-197 -54.5q-197 0 -296 112.5t-99 302.5zM296 1154l234 347h162l236 -347h-156l-162 218l-164 -218h-150z" />
<glyph unicode="&#xfc;" horiz-adv-x="1235" d="M160 392v634h183v-634q0 -132 62.5 -198.5t180.5 -66.5q135 0 211 77t76 199v623h184v-772q0 -137 9 -254h-187l-5 165q-43 -79 -122 -133.5t-197 -54.5q-197 0 -296 112.5t-99 302.5zM314 1182v189h187v-189h-187zM717 1182v189h186v-189h-186z" />
<glyph unicode="&#xfd;" horiz-adv-x="1065" d="M41 1026h193l317 -820l297 820h185l-414 -1080q-55 -145 -160.5 -244t-249.5 -135l-75 126q249 83 309 263l17 52zM482 1172l236 360h237l-319 -360h-154z" />
<glyph unicode="&#xfe;" horiz-adv-x="1236" d="M154 -419v1877h183v-579q46 80 134 126t194 46q152 0 260.5 -71t160 -188.5t51.5 -268.5q0 -112 -30.5 -210t-88 -173t-148.5 -118.5t-205 -43.5q-104 0 -192 41t-136 119v-557h-183zM335 498q0 -167 79.5 -269.5t224.5 -102.5q99 0 168.5 54t101.5 141t32 198 q0 168 -73.5 274.5t-223.5 106.5q-83 0 -145 -33t-96.5 -91t-51 -127t-16.5 -151z" />
<glyph unicode="&#xff;" horiz-adv-x="1065" d="M41 1026h193l317 -820l297 820h185l-414 -1080q-55 -145 -160.5 -244t-249.5 -135l-75 126q249 83 309 263l17 52zM256 1182v189h187v-189h-187zM659 1182v189h186v-189h-186z" />
<glyph unicode="&#x152;" horiz-adv-x="2049" d="M108 729q0 166 50.5 306.5t141.5 239t221 153.5t284 55q116 0 200 -31.5t125 -70.5v75h811v-165h-619v-462h580v-166h-580v-498h649v-165h-841v94q-18 -19 -48.5 -38.5t-73 -37.5t-100 -29t-119.5 -11q-208 0 -361.5 90t-236.5 260t-83 401zM312 725q0 -129 31.5 -236.5 t93 -187.5t158 -124.5t219.5 -44.5q63 0 117.5 11.5t92.5 31t63 39t43 40.5v958q-47 47 -121.5 77.5t-178.5 30.5q-121 0 -219 -44t-163.5 -122.5t-100.5 -188t-35 -240.5z" />
<glyph unicode="&#x153;" horiz-adv-x="1978" d="M95 509q0 156 60 277.5t180.5 193.5t285.5 72q141 0 242.5 -60.5t159.5 -168.5q112 231 389 231q213 0 332.5 -144.5t119.5 -385.5v-53h-751q1 -1 1.5 -15.5t0.5 -15.5q8 -142 99.5 -227t240.5 -85q169 0 322 107l56 -134q-161 -123 -397 -123q-133 0 -248.5 63 t-166.5 167q-48 -106 -157.5 -168t-243.5 -62q-244 0 -384.5 148t-140.5 383zM289 506q0 -167 86.5 -272.5t248.5 -105.5q100 0 170.5 52.5t103.5 137.5t33 193q0 177 -79 284t-232 107q-155 0 -243 -110.5t-88 -285.5zM1115 615h577v24q-14 116 -89 189.5t-190 73.5 q-122 0 -204.5 -83t-93.5 -204z" />
<glyph unicode="&#x178;" horiz-adv-x="1239" d="M21 1456h212l389 -713l391 713h213l-512 -878v-578h-192v575zM346 1612v189h187v-189h-187zM749 1612v189h186v-189h-186z" />
<glyph unicode="&#x2c6;" horiz-adv-x="699" d="M34 1154l234 347h162l236 -347h-156l-162 218l-164 -218h-150z" />
<glyph unicode="&#x2dc;" horiz-adv-x="667" d="M7 1183q0 106 48.5 169.5t131.5 63.5q21 0 45 -5.5t46.5 -14.5t45 -20t44 -21.5t41 -19.5t37.5 -14.5t32 -5.5q32 0 45.5 22t14.5 77h122q0 -112 -44.5 -175.5t-128.5 -63.5q-38 0 -96.5 25t-112.5 50.5t-83 25.5q-61 0 -70 -93h-118z" />
<glyph unicode="&#x2000;" horiz-adv-x="981" />
<glyph unicode="&#x2001;" horiz-adv-x="1963" />
<glyph unicode="&#x2002;" horiz-adv-x="981" />
<glyph unicode="&#x2003;" horiz-adv-x="1963" />
<glyph unicode="&#x2004;" horiz-adv-x="654" />
<glyph unicode="&#x2005;" horiz-adv-x="490" />
<glyph unicode="&#x2006;" horiz-adv-x="327" />
<glyph unicode="&#x2007;" horiz-adv-x="327" />
<glyph unicode="&#x2008;" horiz-adv-x="245" />
<glyph unicode="&#x2009;" horiz-adv-x="392" />
<glyph unicode="&#x200a;" horiz-adv-x="109" />
<glyph unicode="&#x2010;" horiz-adv-x="679" d="M61 487v142h556v-142h-556z" />
<glyph unicode="&#x2011;" horiz-adv-x="679" d="M61 487v142h556v-142h-556z" />
<glyph unicode="&#x2012;" horiz-adv-x="679" d="M61 487v142h556v-142h-556z" />
<glyph unicode="&#x2013;" horiz-adv-x="1103" d="M3 488v146h1094v-146h-1094z" />
<glyph unicode="&#x2014;" horiz-adv-x="2171" d="M16 480v154h2133v-154h-2133z" />
<glyph unicode="&#x2018;" horiz-adv-x="530" d="M123 882l154 574h134l-68 -574h-220z" />
<glyph unicode="&#x2019;" horiz-adv-x="530" d="M123 882l68 574h220l-154 -574h-134z" />
<glyph unicode="&#x201a;" horiz-adv-x="587" d="M155 -327l82 543h198l-128 -543h-152z" />
<glyph unicode="&#x201c;" horiz-adv-x="1024" d="M166 882l155 574h149l-93 -574h-211zM558 882l149 574h150l-93 -574h-206z" />
<glyph unicode="&#x201d;" horiz-adv-x="1024" d="M197 882l90 574h206l-146 -574h-150zM561 882l92 574h205l-146 -574h-151z" />
<glyph unicode="&#x201e;" horiz-adv-x="960" d="M155 -327l82 543h198l-128 -543h-152zM505 -327l82 543h198l-128 -543h-152z" />
<glyph unicode="&#x2022;" horiz-adv-x="989" d="M176 691q0 131 94 225t231 94q139 0 234.5 -94.5t95.5 -224.5t-95.5 -221.5t-234.5 -91.5q-141 0 -233 92t-92 221z" />
<glyph unicode="&#x2026;" horiz-adv-x="1620" d="M148 -11v225h238v-225h-238zM684 -11v225h237v-225h-237zM1219 -11v225h237v-225h-237z" />
<glyph unicode="&#x202f;" horiz-adv-x="392" />
<glyph unicode="&#x2039;" horiz-adv-x="685" d="M138 541l277 375h162l-248 -375l240 -373h-160z" />
<glyph unicode="&#x203a;" horiz-adv-x="685" d="M133 167l247 376l-239 372h159l271 -373l-276 -375h-162z" />
<glyph unicode="&#x205f;" horiz-adv-x="490" />
<glyph unicode="&#x20ac;" horiz-adv-x="1480" d="M29 838h177q-7 -60 -7 -122q0 -15 0.5 -30t1.5 -30t2 -29h-168l-5 -104h189q28 -131 94.5 -235.5t159.5 -171.5t206 -102.5t237 -35.5q276 0 485 153l-64 152q-192 -144 -412 -144q-122 0 -223.5 45.5t-173 132t-104.5 206.5h481l7 104h-507q-3 22 -4 45t-1 46 q0 62 9 120h532l7 110h-514q55 171 183 272t306 101q207 0 368 -119l76 130q-183 150 -458 150q-249 0 -434 -144t-248 -390h-193z" />
<glyph unicode="&#x2122;" horiz-adv-x="1869" d="M71 1341v119h637v-119h-247v-651h-140v651h-250zM828 690v770h162l259 -583l268 583h154v-770h-124v574l-257 -574h-87l-253 569v-569h-122z" />
<glyph unicode="&#x25fc;" horiz-adv-x="1025" d="M0 0v1025h1025v-1025h-1025z" />
<glyph unicode="&#xfb01;" horiz-adv-x="1224" d="M69 912v114h181v88q0 69 5 116.5t19.5 92.5t41 72.5t69 49.5t105 31t147.5 9h47l-1 -136q-74 0 -120 -7.5t-75 -20t-42.5 -41t-17.5 -59.5t-4 -87v-108h490v-114h-490v-912h-174v912h-181zM876 0v1026h183v-1026h-183zM877 1285v171h182v-171h-182z" />
<glyph unicode="&#xfb02;" horiz-adv-x="1265" d="M69 913v113h199v79q0 102 19.5 166.5t72 110.5t143 65t232.5 19h358v-1466h-173v1331h-179q-129 0 -193 -19t-85.5 -59t-21.5 -121v-106h247v-113h-247v-913h-173v913h-199z" />
<glyph unicode="&#xfb03;" horiz-adv-x="1830" d="M68 913v113h182v88q0 69 5 116.5t19.5 92.5t40.5 72.5t69 49.5t104.5 31t146.5 9h47l-1 -135q-62 0 -104 -4t-71.5 -15.5t-46 -25.5t-25.5 -41.5t-11.5 -55t-2.5 -73.5v-109h454v88q0 69 5 116.5t19 92.5t40.5 72.5t69 49.5t104.5 31t147 9h46l-2 -135q-61 0 -103 -4 t-71.5 -15.5t-45.5 -25.5t-25 -41.5t-11 -54.5t-2 -74v-109h611v-1026h-169v913h-442v-913h-171v913h-454v-913h-170v913h-182zM1487 1295v161h169v-161h-169z" />
<glyph unicode="&#xfb04;" horiz-adv-x="1896" d="M68 913v113h183v81q0 61 3.5 103.5t13.5 85t28 70.5t47 52t71 38t99 21.5t132 7.5h48l-3 -143q-60 0 -100.5 -3.5t-70 -15t-45.5 -25.5t-24.5 -41.5t-11 -55.5t-2.5 -76v-99h244v-113h-244v-913h-185v913h-183zM631 913v113h199v79q0 102 19.5 166.5t72 110.5t143 65 t232.5 19h358v-1466h-173v1331h-179q-129 0 -193 -19t-85.5 -59t-21.5 -121v-106h247v-113h-247v-913h-173v913h-199z" />
</font>
</defs>
</svg>
